Welcome Guest ( Log In | Register )

> Tersha - Aim And Fire (2017), Melodic Death/Black Metal
post Nov 14 2017, 14:28:21
Post #1

Serial Uploader
Group Icon
Group: V.I.P
Posts: 32,459
Releases: 30758
From: Lithuania
On Forums: 9 years 11 months
Thanks: 353377 time(s)
Lithuania


(IMG:http://metalarea.org/images/audiocovers/2017_Nov/acov_tid297808_thumb.jpg)

*Artist: Tersha
*Album: Aim And Fire
*Year: 2017
*Genre: Melodic Death/Black Metal
*Country: Poland (IMG:https://metalarea.org/forum/style_images/flags/Poland.png)
*Format: mp3@CBR320kbps
*Size: 102MB

Tracklist:
01. Tersha
02. In The Waiting Line
03. Double Vision
04. True Believer
05. Lost Opportunities
06. Blessed
07. Machine
08. Aim And Fire
09. Heart In A Shell
10. Prayer
11. Druglord
******************************
Total playing time: 44:03




(IMG:http://metalarea.org/images/youtube.png)

Technical info
(IMG:http://metalarea.org/images/spectrogram/2017_Nov/c96e78d59d0179c85a67af8fabe0bef7.png)
Input File: 02. In the Waiting Line.mp3
Channels : 2
Sample Rate : 44100
Precision : 16-bit
Duration : 00:03:40.16 = 9709144 samples = 16512.1 CDDA sectors
File Size : 9.44M
Bit Rate : 343k
Sample Encoding: MPEG audio (layer I, II or III)
Comments :
Title=In the Waiting Line
Artist=Tersha
Album=Aim And Fire
Tracknumber=2
Year=2017
Genre=Thrash Metal



Register


Thanks:
(1) Rosen,
Вернуться к началу страницы
  Insert nick Quick quote
+Цитировать сообщение
 
Создать новую тему
Replies (1 - 1)
post Nov 19 2017, 13:37:07
Post #2

Два Литра
**
Group: Завсегдатай
Posts: 121
Releases: 0
On Forums: 3 years 3 weeks
Thanks: 53 time(s)
Ukraine


самый обычный современный thrash, с уклоном под Iced Earth
Вернуться к началу страницы
  Insert nick Quick quote
+Цитировать сообщение

ОтветитьСоздать новую тему
1 User(s) are reading this topic (1 Guests and 0 Anonymous Users)
0 Members:

 



- Lo-Fi Version Support form
Copyrights and abuse reports form
Time is now: 24th May 2018 - 01:23:27