Welcome Guest ( Log In | Register )

 
Reply to this topicStart new topic
> Ov Enochian - Scrolls Of The Necropolis (2014), Black Metal
post Nov 14 2017, 14:50:31
Post #1

Правь статус, ####!616
**************
Group: Металариец
Posts: 4,408
Releases: 3007
From: 55°35’N 38°08’E
On Forums: 10 years 3 months
Thanks: 56660 time(s)
Unknown


(IMG:http://metalarea.org/images/audiocovers/2017_Nov/acov_tid297809_thumb.jpg)

*Artist: Ov Enochian
*Album: Scrolls Of The Necropolis
*Year: 2014
*Genre: Black Metal
*Country: Canada (IMG:http://metalarea.org/forum/style_images/flags/Canada.png)
*Format: mp3@CBR320kbps
*Size: 75MB

Tracklist:
1.Necrochant 05:11
2.Dybbuk 03:21
3.Vessels Of The Hollow 04:07
4.Ancient Rituals 04:36
5.The Impaler 05:44
6.Child Of The Moon Ft. Dakota Of Westbrook 06:11
7.Slumber, Eternal 03:24
******************************
Total playing time: 32:34




Extended info
CDr, Dethbridge Records (Limited to 100 copies.)


Technical info
(IMG:http://metalarea.org/images/spectrogram/2017_Nov/34dd9f6505cbc6e6306fbe81c520305d.png)
Input File: 01 Necrochant.mp3
Channels : 2
Sample Rate : 44100
Precision : 16-bit
Duration : 00:05:11.10 = 13719422 samples = 23332.4 CDDA sectors
File Size : 12.6M
Bit Rate : 324k
Sample Encoding: MPEG audio (layer I, II or III)
Comments :
Title=Necrochant
Artist=Ov Enochian
Album=Scrolls Of The Necropolis
Tracknumber=1
Year=2014
Genre=Black Metal



Register


Go to the top of the page
  Insert nick Quick quote
+Quote Post

Reply to this topicStart new topic
1 User(s) are reading this topic (1 Guests and 0 Anonymous Users)
0 Members:

 



- Lo-Fi Version Support form
Copyrights and abuse reports form
Time is now: 23rd October 2018 - 12:48:51