Welcome Guest ( Log In | Register )

 
ОтветитьСоздать новую тему
> XsaladcrusherX - A Mockery Of The Genre (2017), Grindcore/Hardcore
post Nov 14 2017, 15:11:19
Post #1

Serial Uploader
Group Icon
Group: V.I.P
Posts: 31,387
Releases: 29722
From: Lithuania
On Forums: 9 years 8 months
Thanks: 341476 time(s)
Lithuania


(IMG:http://metalarea.org/images/audiocovers/2017_Nov/acov_tid297810_thumb.jpg)

*Artist: XsaladcrusherX
*Album: A Mockery Of The Genre
*Year: 2017
*Genre: Grindcore/Hardcore
*Country: Canada (IMG:http://metalarea.org/forum/style_images/flags/Canada.png)
*Format: mp3@CBR320kbps
*Size: 37MB

Tracklist:
01. Shut Up You Anus 00:44
02. Hygiene Is A Chore And An Inconvenience 00:41
03. Justifying Stupid And Reckless Behavior By Saying "Animals Do It; It's Natural" Is Fucking Stupid 00:25
04. Shave Your Dreads, Asshole 00:42
05. Fuck Neckbeard Atheist Nerds 00:37
06. Play This One Backwards 00:28
07. This Bathroom Smells Like That Bedding Stuff For Hamster Cages 00:19
08. Fat Cop 00:32
09. Fucking A Toy Horse 00:10
10. You Buffer 01:03
11. Hey Dom 00:13
12. Fuck Sports Fans 00:36
13. Defender Of The Ditch 00:44
14. Dr. Dunlap's Customer Appreciation Bbq 01:00
15. Death Cult 00:21
16. The Alright Wall Of China 00:13
17. What Do You Mean You Don't Like Xsaladcrusherx? 00:24
18. Crimson Waves Of Tomato Sauce 00:28
19. Boohoo Crybaby Bullshit 00:30
20. Total Destruction Of Children 00:32
21. False Fun 00:15
22. Fuck The Things I Don't Like And Anyone Who Enjoys Them 00:28
23. Marco Cholo 00:20
24. Gayle Laverne Grinds 00:36
25. Depeche À La Mode 00:37
26. Ecclesiastes 1:10 00:32
27. Shit Spitter 00:53
******************************
Total playing time: 15:33




Technical info
(IMG:http://metalarea.org/images/spectrogram/2017_Nov/63e394f4294cf660f68a9c145d079e96.png)
Input File: 02. Hygiene Is A Chore And An Inconvenience.mp3
Channels : 2
Sample Rate : 44100
Precision : 16-bit
Duration : 00:00:41.56 = 1832972 samples = 3117.3 CDDA sectors
File Size : 1.80M
Bit Rate : 346k
Sample Encoding: MPEG audio (layer I, II or III)
Comments :
Title=Hygiene Is A Chore And An Inconvenience
Artist=XsaladcrusherX
Album=A Mockery Of The Genre
Tracknumber=2
Year=2017



Register


Вернуться к началу страницы
  Insert nick Quick quote
+Цитировать сообщение

ОтветитьСоздать новую тему
1 User(s) are reading this topic (1 Guests and 0 Anonymous Users)
0 Members:

 



- Lo-Fi Version Support form
Copyrights and abuse reports form
Time is now: 19th February 2018 - 03:25:01