Welcome Guest ( Log In | Register )

 
ОтветитьСоздать новую тему
> Ciomporock - Skeletri (2002), Groove Metal
post Nov 14 2017, 15:14:29
Post #1

People = Shit
**************
Group: Металариец
Posts: 5,159
Releases: 414
From: Беларусь, Минск
On Forums: 5 years 5 months
Thanks: 5593 time(s)
Belarus


(IMG:https://metalarea.org/images/audiocovers/2017_Nov/acov_tid297811_thumb.jpg)

*Artist: Ciomporock
*Album: Skeletri [demo]
*Year: 2002
*Genre: Groove Metal
*Country: Italy (IMG:https://metalarea.org/forum/style_images/flags/Italy.png)
*Format: mp3@CBR320kbps
*Size: 84MB

Tracklist:
01. Guardami 4:31
02. Etnica 4:01
03. Blues 5:32
04. La Mia Anima 4:24
05. Scuse 4:58
06. Superpornolive 6:07
07. Whole Lotta Rosie (AC/DC Cover)
08. Born to Be Wild (Steppenwolf Cover)
******************************
Total playing time: 29:33

Technical info
(IMG:https://metalarea.org/images/spectrogram/2017_Nov/738e10d507162b009f9b7057beae52f2.png)
Input File: 02 Etnica.mp3
Channels : 2
Sample Rate : 44100
Precision : 16-bit
Duration : 00:04:01.34 = 10643138 samples = 18100.6 CDDA sectors
File Size : 9.65M
Bit Rate : 320k
Sample Encoding: MPEG audio (layer I, II or III)
Comments :
Title=Etnica
Artist=Ciomporock
Album=Skeletri
Genre=Thrash Metal



Register


Thanks:
(2) metala, Rosen,
Вернуться к началу страницы
  Insert nick Quick quote
+Цитировать сообщение

ОтветитьСоздать новую тему
1 User(s) are reading this topic (1 Guests and 0 Anonymous Users)
0 Members:

 



- Lo-Fi Version Support form
Copyrights and abuse reports form
Time is now: 19th February 2018 - 03:24:07