Welcome Guest ( Log In | Register )

> Trenchgrinder - Peace Is Forfeit (2017), Death/Thrash Metal/Crust
post Nov 14 2017, 15:29:21
Post #1

Serial Uploader
Group Icon
Group: V.I.P
Posts: 32,924
Releases: 31220
From: Lithuania
On Forums: 10 years 2 months
Thanks: 357467 time(s)
Lithuania


(IMG:https://metalarea.org/images/audiocovers/2017_Nov/acov_tid297812_thumb.jpg)

*Artist: Trenchgrinder
*Album: Peace Is Forfeit
*Year: 2017
*Genre: Death/Thrash Metal/Crust
*Country: United States (IMG:https://metalarea.org/forum/style_images/flags/United%20States.png)
*Format: mp3@CBR320kbps
*Size: 77MB

Tracklist:
01. Incursion 02:27
02. Lay The Earth To Rest 03:52
03. Deterrence And Retribution 04:22
04. Waking Terror 06:06
05. For Knowledge Of Blood 03:36
06. Destroyer Unmaker 04:39
07. Peace Is Forfeit 01:51
08. War To Wage 03:56
09. Desolation 02:27
******************************
Total playing time: 33:16




Technical info
(IMG:https://metalarea.org/images/spectrogram/2017_Nov/88500b4bc064ad74040b95a61aa9caac.png)
Input File: 02. Lay the Earth to Rest.mp3
Channels : 2
Sample Rate : 44100
Precision : 16-bit
Duration : 00:03:52.20 = 10239932 samples = 17414.9 CDDA sectors
File Size : 9.49M
Bit Rate : 327k
Sample Encoding: MPEG audio (layer I, II or III)
Comments :
Title=Lay the Earth to Rest
Artist=Trenchgrinder
Album=Peace Is Forfeit
Tracknumber=2
Year=2017
Genre=22



Register


Go to the top of the page
  Insert nick Quick quote
+Quote Post
 
Start new topic
Replies (1 - 2)
post May 30 2018, 01:29:08
Post #2

Девять Литров
*********
Group: Металариец
Posts: 965
Releases: 0
From: Vinland
On Forums: 5 years 8 months
Thanks: 1099 time(s)
United States


Reupload please!
Go to the top of the page
  Insert nick Quick quote
+Quote Post
post May 30 2018, 02:02:05
Post #3

Маньяк
**********
Group: Металариец
Posts: 1,288
Releases: 0
On Forums: 2 years 1 month
Thanks: 52 time(s)
United Kingdom


From the Web

Register


This post has been edited by Borderline1991: May 31 2018, 04:54:58
Reason for edit: hide


Thanks:
(1) Goatrex,
Go to the top of the page
  Insert nick Quick quote
+Quote Post

Reply to this topicStart new topic
1 User(s) are reading this topic (1 Guests and 0 Anonymous Users)
0 Members:

 



- Lo-Fi Version Support form
Copyrights and abuse reports form
Time is now: 14th August 2018 - 09:21:11