Welcome Guest ( Log In | Register )

 
ОтветитьСоздать новую тему
> Trenchgrinder - Peace Is Forfeit (2017), Death/Thrash Metal/Crust
post Nov 14 2017, 15:29:21
Post #1

Serial Uploader
Group Icon
Group: V.I.P
Posts: 31,387
Releases: 29722
From: Lithuania
On Forums: 9 years 8 months
Thanks: 341476 time(s)
Lithuania


(IMG:https://metalarea.org/images/audiocovers/2017_Nov/acov_tid297812_thumb.jpg)

*Artist: Trenchgrinder
*Album: Peace Is Forfeit
*Year: 2017
*Genre: Death/Thrash Metal/Crust
*Country: United States (IMG:https://metalarea.org/forum/style_images/flags/United%20States.png)
*Format: mp3@CBR320kbps
*Size: 77MB

Tracklist:
01. Incursion 02:27
02. Lay The Earth To Rest 03:52
03. Deterrence And Retribution 04:22
04. Waking Terror 06:06
05. For Knowledge Of Blood 03:36
06. Destroyer Unmaker 04:39
07. Peace Is Forfeit 01:51
08. War To Wage 03:56
09. Desolation 02:27
******************************
Total playing time: 33:16




Technical info
(IMG:https://metalarea.org/images/spectrogram/2017_Nov/88500b4bc064ad74040b95a61aa9caac.png)
Input File: 02. Lay the Earth to Rest.mp3
Channels : 2
Sample Rate : 44100
Precision : 16-bit
Duration : 00:03:52.20 = 10239932 samples = 17414.9 CDDA sectors
File Size : 9.49M
Bit Rate : 327k
Sample Encoding: MPEG audio (layer I, II or III)
Comments :
Title=Lay the Earth to Rest
Artist=Trenchgrinder
Album=Peace Is Forfeit
Tracknumber=2
Year=2017
Genre=22



Register


Вернуться к началу страницы
  Insert nick Quick quote
+Цитировать сообщение

ОтветитьСоздать новую тему
1 User(s) are reading this topic (1 Guests and 0 Anonymous Users)
0 Members:

 



- Lo-Fi Version Support form
Copyrights and abuse reports form
Time is now: 19th February 2018 - 03:25:56