Welcome Guest ( Log In | Register )

 
ОтветитьСоздать новую тему
> Green Waffle - Slain By Infection [ep] (2017), Goregrind
post Nov 14 2017, 16:00:26
Post #1

Serial Uploader
Group Icon
Group: V.I.P
Posts: 31,387
Releases: 29722
From: Lithuania
On Forums: 9 years 8 months
Thanks: 341476 time(s)
Lithuania


(IMG:http://metalarea.org/images/audiocovers/2017_Nov/acov_tid297813_thumb.jpg)

*Artist: Green Waffle
*Album: Slain By Infection [ep]
*Year: 2017
*Genre: Goregrind
*Country: United States (IMG:http://metalarea.org/forum/style_images/flags/United%20States.png)
*Format: mp3@CBR320kbps
*Size: 37MB

Tracklist:
01. Hacksaw Amputation 02:52
02. Living Corpses 02:21
03. Throwing Nuts In Class 03:02
04. Slain By Infection 03:32
******************************
Total playing time: 11:47


(IMG:http://metalarea.org/images/youtube.png)

Technical info
(IMG:http://metalarea.org/images/spectrogram/2017_Nov/684affc5a9c516d972ea833d96123d93.png)
Input File: 02. Living Corpses.mp3
Channels : 2
Sample Rate : 44100
Precision : 16-bit
Duration : 00:02:21.15 = 6224803 samples = 10586.4 CDDA sectors
File Size : 5.80M
Bit Rate : 329k
Sample Encoding: MPEG audio (layer I, II or III)
Comments :
Title=Living Corpses
Artist=Green Waffle
Album=Slain by Infection EP
Tracknumber=2
Year=2017



Register


Thanks:
Вернуться к началу страницы
  Insert nick Quick quote
+Цитировать сообщение

ОтветитьСоздать новую тему
1 User(s) are reading this topic (1 Guests and 0 Anonymous Users)
0 Members:

 



- Lo-Fi Version Support form
Copyrights and abuse reports form
Time is now: 19th February 2018 - 03:24:42