Welcome Guest ( Log In | Register )

> Psicocancer - La Reconquista (2017), Thrash Metal/Crossover
post Nov 14 2017, 16:55:29
Post #1

Правь статус, ####!111
**************
Group: Металариец
Posts: 13,032
Releases: 9252
From: Г.Харьков
On Forums: 6 years 1 week
Thanks: 150410 time(s)
Unknown


(IMG:http://metalarea.org/images/audiocovers/2017_Nov/acov_tid297814_thumb.png)

*Artist: Psicocancer
*Album: La Reconquista
*Year: 2017
*Genre: Thrash Metal/Crossover
*Country: Argentina (IMG:http://metalarea.org/forum/style_images/flags/Argentina.png)
*Format: mp3@CBR320kbps
*Size: 54MB

Tracklist:
1. Psicocancer
2. Bancocracia
3. Cipayos
4. Extrema Sobredosis de Thrash
5. Destrucsionismo
6. Derrota Mundial
7. La Pérfida Albión
8. Panic (Anthrax cover)
******************************
Total playing time: 23:43



Extended info
Voz principal: Rama Daneri
Guitarra y coros: Lauti Daneri
Guitarra 2: Guillermo Nudel
Bajo y coros: Leo Bonzzi
Bateria: Eric Daneri


Technical info
(IMG:http://metalarea.org/images/spectrogram/2017_Nov/459d50c0830277c3745b626a8f6c71f5.png)
Input File: 4 - Extrema Sobredosis de Thrash.mp3
Channels : 2
Sample Rate : 44100
Precision : 16-bit
Duration : 00:04:44.03 = 12525811 samples = 21302.4 CDDA sectors
File Size : 11.4M
Bit Rate : 320k
Sample Encoding: MPEG audio (layer I, II or III)
Comments :
Title=Extrema Sobredosis de Thrash
Artist=Psicocancer
Album=La Reconquista
Tracknumber=4
Year=2017
Genre=Thrash Metal



Register


Вернуться к началу страницы
  Insert nick Quick quote
+Цитировать сообщение
 
Создать новую тему
Replies (1 - 1)
post Nov 15 2017, 19:16:33
Post #2

Маньяк
**********
Group: Металариец
Posts: 1,252
Releases: 5
From: Нью-Васюки
On Forums: 12 years 5 days
Thanks: 348 time(s)
Russian Federation


что же им, паскудам, на аглицком не поется?Группа чумовая!


Thanks:
Вернуться к началу страницы
  Insert nick Quick quote
+Цитировать сообщение

ОтветитьСоздать новую тему
1 User(s) are reading this topic (1 Guests and 0 Anonymous Users)
0 Members:

 



- Lo-Fi Version Support form
Copyrights and abuse reports form
Time is now: 24th May 2018 - 22:46:02