Welcome Guest ( Log In | Register )

> Game Over - Claiming Supremacy (2017), Old School Thrash Metal (D12)
post Nov 14 2017, 18:09:17
Post #1

Правь статус, ####!111
**************
Group: Металариец
Posts: 13,893
Releases: 9703
From: Г.Харьков
On Forums: 6 years 3 months
Thanks: 159143 time(s)
Unknown


(IMG:http://metalarea.org/images/audiocovers/2017_Nov/acov_tid297819_thumb.jpg)

*Artist: Game Over
*Album: Claiming Supremacy
*Year: 2017
*Genre: Old School Thrash Metal
*Country: Italy (IMG:http://metalarea.org/forum/style_images/flags/Italy.png)
*Format: mp3@CBR320kbps
*Size: 90MB

Tracklist:
1. Onward to Blackness 02:26
2. Two Steps into the Shadows 03:56
3. Last Before the End 03:37
4. My Private Nightmare 03:57
5. Blessed Are the Heretics 06:20
6. Eleven 04:22
7. Broken Trails 03:56
8. Shattered Souls 01:50
9. Lysander 04:08
10. Show Me What You Got 03:00
******************************
Total playing time: 37:32




Extended info
Reno - Bass/Vocals
Ziro - Guitar
Sanso - Guitar
Vender - Drums



Technical info
(IMG:http://metalarea.org/images/spectrogram/2017_Nov/610ece5df87c090cf17378d78a07f55f.png)
Input File: 03. Last Before The End.mp3
Channels : 2
Sample Rate : 44100
Precision : 16-bit
Duration : 00:03:37.52 = 9592588 samples = 16313.9 CDDA sectors
File Size : 9.10M
Bit Rate : 335k
Sample Encoding: MPEG audio (layer I, II or III)
Comments :
Title=Last Before The End
Artist=Game Over
Album=Claiming Supremacy
Tracknumber=3/10
Year=2017
Genre=Metal



Register


Go to the top of the page
  Insert nick Quick quote
+Quote Post
 
Start new topic
Replies (1 - 2)
post Nov 14 2017, 18:21:21
Post #2

Правь статус, ####!111
**************
Group: Металариец
Posts: 13,893
Releases: 9703
From: Г.Харьков
On Forums: 6 years 3 months
Thanks: 159143 time(s)
Unknown


Register


Go to the top of the page
  Insert nick Quick quote
+Quote Post
post Nov 14 2017, 20:06:14
Post #3

Пять Литров
*****
Group: Металариец
Posts: 467
Releases: 0
On Forums: 9 years 1 month
Thanks: 101 time(s)
Ukraine


Вау вот это новость,Макаронники вернулись с новым альбом,слуханём его,а клипец то Last Before The End-зачётный трэшак!!!спасибо за релиз!!!


Thanks:
Go to the top of the page
  Insert nick Quick quote
+Quote Post

Reply to this topicStart new topic
1 User(s) are reading this topic (1 Guests and 0 Anonymous Users)
0 Members:

 



- Lo-Fi Version Support form
Copyrights and abuse reports form
Time is now: 14th August 2018 - 09:21:19