Welcome Guest ( Log In | Register )

> Purple Hill Witch - Celestial Cemetery (2017), Doom Metal
post Nov 14 2017, 18:28:03
Post #1

Правь статус, ####!111
**************
Group: Металариец
Posts: 13,362
Releases: 9421
From: Г.Харьков
On Forums: 6 years 1 month
Thanks: 153704 time(s)
Unknown


(IMG:http://metalarea.org/images/audiocovers/2017_Nov/acov_tid297820_thumb.jpg)

*Artist: Purple Hill Witch
*Album: Celestial Cemetery
*Year: 2017
*Genre: Doom Metal
*Country: Norway (IMG:http://metalarea.org/forum/style_images/flags/Norway.png)
*Format: mp3@CBR320kbps
*Size: 89MB

Tracklist:
1. Ghouls in Leather 08:14
2. Harbinger of Death 04:02
3. Celestial Cemetery 05:02
4. Around the Universe 05:04
5. Menticide 04:27
6. The First Encounter 05:38
7. Burnt Offering 06:12
******************************
Total playing time: 38:39




Extended info
Kristian - Gitar & vokal
Andreas - Bass
Øyvind - Trommer


Technical info
(IMG:http://metalarea.org/images/spectrogram/2017_Nov/5007e83770871844848f7aeac674f342.png)
Input File: Purple Hill Witch - Celestial Cemetery - 02 Harbinger of Death.mp3
Channels : 2
Sample Rate : 44100
Precision : 16-bit
Duration : 00:04:02.89 = 10711581 samples = 18217 CDDA sectors
File Size : 9.87M
Bit Rate : 325k
Sample Encoding: MPEG audio (layer I, II or III)
Comments :
Title=Harbinger of Death
Artist=Purple Hill Witch
Album=Celestial Cemetery
Tracknumber=2
Year=2017



Register


Go to the top of the page
  Insert nick Quick quote
+Quote Post
 
Start new topic
Replies (1 - 2)
post Nov 27 2017, 20:03:55
Post #2

Попсовик от брутала
**************
Group: Металариец
Posts: 5,938
Releases: 56
From: Минск
On Forums: 9 years 6 months
Thanks: 4796 time(s)
Belarus


Увидел обложку, прочитал название... "Небесное кладбище". Ну это ж чистая поэзия!
Музыка тоже оказалась довольно приятной. Трад дум в психоделическом одеяле. Высокий, подутопленный голос, пару раз срывающийся почти на визг, очень логично перетекающие один в другой риффы, мелодии воздушные, словно поднимающие к тому самому кладбищу. Красиво, не одноразово. Последняя песня, пожалуй, лучшая, c губной гармошкой и длинным соляком.


Thanks:
(1) DMIYUR,
Go to the top of the page
  Insert nick Quick quote
+Quote Post
post Jan 11 2018, 15:17:25
Post #3

Watch The Water
*********
Group: Металариец
Posts: 901
Releases: 30
On Forums: 11 years 3 months
Thanks: 1192 time(s)
El Salvador


В вокале местами то Пола Чейна слышу, то Лори С., но как-то не вывозит, яиц не хватает. Риффинг банальный, так что хз с чего тут возбуждаться.
Go to the top of the page
  Insert nick Quick quote
+Quote Post

Reply to this topicStart new topic
1 User(s) are reading this topic (1 Guests and 0 Anonymous Users)
0 Members:

 



- Lo-Fi Version Support form
Copyrights and abuse reports form
Time is now: 20th June 2018 - 20:01:40