Welcome Guest ( Log In | Register )

 
Reply to this topicStart new topic
> Shadow Of The Torturer - Marching Into Chaos (re-recording) (2011), Sludge/Doom Metal (D4)
post Nov 14 2017, 19:00:25
Post #1

Serpent Doom
**************
Group: Металариец
Posts: 2,101
Releases: 646
From: Moscow region
On Forums: 10 years 3 months
Thanks: 11557 time(s)
Russian Federation


(IMG:http://metalarea.org/images/audiocovers/2017_Nov/acov_tid297821_thumb.jpg)

*Artist: Shadow Of The Torturer
*Album: Marching Into Chaos (re-recording)
*Year: 2011
*Genre: Sludge/Doom Metal
*Country: United States (IMG:http://metalarea.org/forum/style_images/flags/United%20States.png)
*Format: mp3@CBR320kbps
*Size: 178MB

Tracklist:
1. Unbeknownst To All 03:13
2. The Walk 06:40
3. Alone At Night 04:50
4. Who Are You? (Black Sabbath cover) 06:07
5. Yaks Of Sodom 09:19
6. Alchemy Of Nine Dimensions 19:14
******************************
Total playing time: 49:23



Extended info
NOTE: This is NOT the same recording that was released through Blind Date Records in 2009. The band were not satisfied with the production so they re-entered the studio a few months later and re-recorded everything anew.

Scans included.


Technical info
(IMG:http://metalarea.org/images/spectrogram/2017_Nov/fee03743297aadd9bd7ff272f71f942b.png)
Input File: 01. Unbeknownst to All.mp3
Channels : 2
Sample Rate : 44100
Precision : 16-bit
Duration : 00:03:13.14 = 8517650 samples = 14485.8 CDDA sectors
File Size : 7.73M
Bit Rate : 320k
Sample Encoding: MPEG audio (layer I, II or III)
Comments :
Title=Unbeknownst to All
Artist=Shadow Of The Torturer
Album=Marching Into Chaos
Tracknumber=1
Year=2011
Genre=Death/Doom Metal



Register


Go to the top of the page
  Insert nick Quick quote
+Quote Post

Reply to this topicStart new topic
1 User(s) are reading this topic (1 Guests and 0 Anonymous Users)
0 Members:

 



- Lo-Fi Version Support form
Copyrights and abuse reports form
Time is now: 12th December 2018 - 03:57:27