Welcome Guest ( Log In | Register )

> Turbocharged - Apocalyptic (2017), Old School Blackened Thrash Metal
post Nov 14 2017, 19:19:49
Post #1

Правь статус, ####!111
**************
Group: Металариец
Posts: 14,239
Releases: 9883
From: Г.Харьков
On Forums: 6 years 4 months
Thanks: 162301 time(s)
Unknown


(IMG:http://metalarea.org/images/audiocovers/2017_Nov/acov_tid297823_thumb.jpg)

*Artist: Turbocharged
*Album: Apocalyptic
*Year: 2017
*Genre: Old School Blackened Thrash Metal
*Country: Sweden (IMG:http://metalarea.org/forum/style_images/flags/Sweden.png)
*Format: mp3@CBR320kbps
*Size: 92MB

Tracklist:
1. Angelcripple 03:05
2. Siamese Sons of God 03:08
3. Apocalyptic 05:02
4. Religious and Infected 03:05
5. Alpha Blasphemer 03:14
6. Halo of Thorns 02:51
7. Relieve Thyself onto Me 03:27
8. Deathmarch 03:01
9. Sacred Cadaver 01:43
10. Cold Day in Paradise 04:23
11. Resurrection Incomplete 03:18
12. Scandinavian Darkness 04:01
******************************
Total playing time: 40:18



Extended info
Ronnie Ripper - Bass/Lead Throat
Freddie Fister - Drums/Throat
Old Nick - Guitars



Technical info
(IMG:http://metalarea.org/images/spectrogram/2017_Nov/3eb584e68648d20a16fdfe832daf910d.png)
Input File: 03 - Apocalyptic.mp3
Channels : 2
Sample Rate : 44100
Precision : 16-bit
Duration : 00:05:01.92 = 13314672 samples = 22644 CDDA sectors
File Size : 12.1M
Bit Rate : 320k
Sample Encoding: MPEG audio (layer I, II or III)
Comments :
Title=Apocalyptic
Artist=Turbocharged
Album=Apocalyptic
Tracknumber=3
Year=2017
Genre=Death Metal



Register


Go to the top of the page
  Insert nick Quick quote
+Quote Post
 
Start new topic
Replies (1 - 2)
post Nov 15 2017, 19:21:49
Post #2

Маньяк
**********
Group: Металариец
Posts: 1,286
Releases: 5
From: Нью-Васюки
On Forums: 12 years 4 months
Thanks: 369 time(s)
Russian Federation


Сурово выглядят (IMG:style_emoticons/default/smile1.gif) , зачетно!


Thanks:
Go to the top of the page
  Insert nick Quick quote
+Quote Post
post Nov 15 2017, 20:43:48
Post #3

Правь статус, ####!111
**************
Group: Металариец
Posts: 14,239
Releases: 9883
From: Г.Харьков
On Forums: 6 years 4 months
Thanks: 162301 time(s)
Unknown


ЦИТАТА(Darkness @ 15th November 2017 - 20:21:49) *
Сурово выглядят , зачетно!

И по музыке они неслабо утяжелились,гитарка классно отстроена-а вокал вообще шикарный!
Go to the top of the page
  Insert nick Quick quote
+Quote Post

Reply to this topicStart new topic
1 User(s) are reading this topic (1 Guests and 0 Anonymous Users)
0 Members:

 



- Lo-Fi Version Support form
Copyrights and abuse reports form
Time is now: 19th September 2018 - 14:00:36