Welcome Guest ( Log In | Register )

> Gruesome Fate - Repugnant Dissertation Of Necrosis (2017), Death Metal (D4)
post Nov 16 2017, 21:19:40
Post #1

Правь статус, ####!111
**************
Group: Металариец
Posts: 14,913
Releases: 10236
From: Г.Харьков
On Forums: 6 years 6 months
Thanks: 168758 time(s)
Unknown


(IMG:http://metalarea.org/images/audiocovers/2017_Nov/acov_tid297965_thumb.jpg)

*Artist: Gruesome Fate
*Album: Repugnant Dissertation Of Necrosis
*Year: 2017
*Genre: Death Metal
*Country: United States (IMG:http://metalarea.org/forum/style_images/flags/United%20States.png)
*Format: mp3@CBR320kbps
*Size: 71MB

Tracklist:
1. Spreading of Cystic Infection 04:59
2. Postmortem Dissection 03:45
3. Corrosive Disposal 02:08
4. Contusional Bruising 03:18
5. Necronomicon 04:16
6. El Padrino de la Muerte 03:40
7. Pungent Sacculations 03:07
8. Myocardial Infarction 04:49
9. Lupus 03:59
******************************
Total playing time: 34:01



Extended info


Technical info
(IMG:http://metalarea.org/images/spectrogram/2017_Nov/b1699158c22738dd31d950e30b584d1e.png)
Input File: 3 Corrosive Disposal.mp3
Channels : 2
Sample Rate : 44100
Precision : 16-bit
Duration : 00:02:08.33 = 5659265 samples = 9624.6 CDDA sectors
File Size : 5.25M
Bit Rate : 327k
Sample Encoding: MPEG audio (layer I, II or III)
Comments :
Title=Corrosive Disposal
Artist=Gruesome Fate
Album=Repugnant Dissertation Of Necrosis
Tracknumber=3/9
Year=2017
Genre=Metal
Discnumber=1/1



Register


Go to the top of the page
  Insert nick Quick quote
+Quote Post
 
Start new topic
Replies (1 - 3)
post Nov 17 2017, 17:20:56
Post #2

Сталин придёт за тобой...
***********
Group: Металариец
Posts: 1,627
Releases: 0
From: Беларусь, Минск
On Forums: 11 years 4 months
Thanks: 761 time(s)
Belarus


Брутал можно добавить.
Go to the top of the page
  Insert nick Quick quote
+Quote Post
post Nov 17 2017, 22:49:38
Post #3

Литр
*
Group: Подсевший
Posts: 58
Releases: 0
On Forums: 11 years 2 months
Thanks: 24 time(s)
China


good music ruined by very very bad production.


Go to the top of the page
  Insert nick Quick quote
+Quote Post
post Sep 14 2018, 18:25:18
Post #4

Black is beautiful
***********
Group: Металариец
Posts: 1,643
Releases: 4
On Forums: 6 years 8 months
Thanks: 302 time(s)
Unknown


Cruelty soundmix and record
Go to the top of the page
  Insert nick Quick quote
+Quote Post

Reply to this topicStart new topic
1 User(s) are reading this topic (1 Guests and 0 Anonymous Users)
0 Members:

 



- Lo-Fi Version Support form
Copyrights and abuse reports form
Time is now: 14th November 2018 - 14:38:31