Welcome Guest ( Log In | Register )

> Canine - The Uprising (2017), Groove Metal
post Nov 25 2017, 17:11:15
Post #1

Мегаманьяк
***********
Group: Металариец
Posts: 1,789
Releases: 1554
From: Одесса
On Forums: 11 years 2 weeks
Thanks: 12942 time(s)
Ukraine


(IMG:http://metalarea.org/images/audiocovers/2017_Nov/acov_tid298431_thumb.jpg)

*Artist: Canine
*Album: The Uprising
*Year: 2017
*Genre: Groove Metal
*Country: Israel (IMG:http://metalarea.org/forum/style_images/flags/Israel.png)
*Format: mp3@CBR320kbps
*Size: 84MB

Tracklist:
1. Silence Before Chaos 05:19
2. Mutiny 05:07
3. Last Words Live Forever 05:50
4. Reflection 02:12
5. From Ashes 04:08
6. To the Exile 05:22
7. With the Crows in Sight 04:34
8. The Uprising 05:52
******************************
Total playing time: 38:24



Extended info
Line - up:

Eliav Torjman - Vocals (backing)
Yuval Sarfati - Guitars (lead), Vocals (backing)
Matan Levy - Drums
Bar Sasson - Bass (ex-Eyes Sewn Shut)
Ben Saada - Vocals (lead) (ex-Eyes Sewn Shut)

(IMG:https://www.metal-archives.com/images/3/5/4/0/3540364489_photo.jpg?1658)


Technical info
(IMG:http://metalarea.org/images/spectrogram/2017_Nov/bbcd23db35f76bb954304e7a43adeddc.png)
Input File: 1 Silence Before Chaos.mp3
Channels : 2
Sample Rate : 44100
Precision : 16-bit
Duration : 00:05:18.94 = 14065034 samples = 23920.1 CDDA sectors
File Size : 12.9M
Bit Rate : 322k
Sample Encoding: MPEG audio (layer I, II or III)
Comments :
Title=Silence Before Chaos
Artist=Canine
Album=The Uprising
Tracknumber=1
Year=2017
Genre=Groove Metal



Register


Thanks:
Go to the top of the page
  Insert nick Quick quote
+Quote Post
 
Start new topic
Replies (1 - 3)
post Nov 26 2017, 07:08:42
Post #2

Up From The Grave
********
Group: Металариец
Posts: 857
Releases: 119
From: Minsk
On Forums: 9 years 11 months
Thanks: 2322 time(s)
Belarus


Go to the top of the page
  Insert nick Quick quote
+Quote Post
post Apr 15 2019, 22:38:43
Post #3

Ледоруб
**************
Group: Металариец
Posts: 22,320
Releases: 0
From: Санкт-Петербург
On Forums: 9 years 9 months
Thanks: 7276 time(s)
Russian Federation


Хорошо сегодня прожарили на разогреве у Далайи.
Перезалейте.
Go to the top of the page
  Insert nick Quick quote
+Quote Post
post Apr 15 2019, 23:13:09
Post #4

Правь статус, ####!111
**************
Group: Металариец
Posts: 2,212
Releases: 0
On Forums: 4 years 1 month
Thanks: 2311 time(s)
Russian Federation


320
Register


Thanks:
(1) 6666666,
Go to the top of the page
  Insert nick Quick quote
+Quote Post

Reply to this topicStart new topic
1 User(s) are reading this topic (1 Guests and 0 Anonymous Users)
0 Members:

 



- Lo-Fi Version Support form
Copyrights and abuse reports form
Time is now: 19th June 2019 - 04:02:45