Welcome Guest ( Log In | Register )

> Ignis Haereticum - Autocognition Of Light (2017), Black Metal
post Nov 30 2017, 13:41:57
Post #1

Аннигилятор пивА
Group Icon
Group: V.I.P
Posts: 47,435
Releases: 14297
From: Koenigsberg - TILZIT
On Forums: 12 years 1 month
Thanks: 316551 time(s)
Russian Federation


(IMG:https://metalarea.org/images/audiocovers/2017_Nov/acov_tid298650_thumb.jpg)

*Artist: Ignis Haereticum
*Album: Autocognition Of Light
*Year: 2017
*Genre: Black Metal
*Country: Colombia (IMG:https://metalarea.org/forum/style_images/flags/Colombia.png)
*Format: mp3@CBR320kbps
*Size: 95MB

Tracklist:
01. Glorious Wounds
02. Atonement of the Faithful
03. Mors Mystica
04. Ekstasis
05. Lifting the Veil
06. Autocognition of Light
******************************
Total playing time: 40:51




Technical info
(IMG:https://metalarea.org/images/spectrogram/2017_Nov/0748d307ad42f5280fc65dfd41f354b5.png)
Input File: 02 Atonement of the Faithful.mp3
Channels : 2
Sample Rate : 44100
Precision : 16-bit
Duration : 00:06:52.45 = 18189221 samples = 30934 CDDA sectors
File Size : 16.6M
Bit Rate : 322k
Sample Encoding: MPEG audio (layer I, II or III)
Comments :
Title=Atonement Of The Faithful
Artist=Ignis Haereticum
Album=Autocognition Of Light
Tracknumber=02/06
Year=2017



Register


Go to the top of the page
  Insert nick Quick quote
+Quote Post
 
Start new topic
Replies (1 - 3)
post Nov 30 2017, 15:01:13
Post #2

Аннигилятор пивА
Group Icon
Group: V.I.P
Posts: 47,435
Releases: 14297
From: Koenigsberg - TILZIT
On Forums: 12 years 1 month
Thanks: 316551 time(s)
Russian Federation


mirror
Register




Go to the top of the page
  Insert nick Quick quote
+Quote Post
post Dec 1 2017, 13:08:53
Post #3

Два Литра
**
Group: Завсегдатай
Posts: 181
Releases: 0
From: Belarus
On Forums: 9 years 4 months
Thanks: 50 time(s)
Belarus


Гитары напомнили Terra Tenebrosa
И то и это долго слушать сложно, как Стравинского (IMG:style_emoticons/default/smile1.gif)

spotify


Thanks:
(1) SSBandera,
Go to the top of the page
  Insert nick Quick quote
+Quote Post
post Mar 13 2018, 17:57:07
Post #4

Два Литра
**
Group: Завсегдатай
Posts: 121
Releases: 0
From: Волжский
On Forums: 10 years 3 weeks
Thanks: 71 time(s)
Russian Federation


Отличный DsO-worship
Go to the top of the page
  Insert nick Quick quote
+Quote Post

Reply to this topicStart new topic
2 User(s) are reading this topic (2 Guests and 0 Anonymous Users)
0 Members:

 



- Lo-Fi Version Support form
Copyrights and abuse reports form
Time is now: 22nd July 2018 - 23:17:54