Welcome Guest ( Log In | Register )

> И неформату есть предел.

Рэп/хип-хоп/шансон/поп удаляются. Для них есть свои порталы.

> Prurient - Rainbow Mirror (2017), Doom Electronics/Noise (D30)
post Dec 1 2017, 09:50:36
Post #1

а ты попал в даунтаун
********
Group: Металариец
Posts: 883
Releases: 45
From: Москва
On Forums: 9 years 4 hours
Thanks: 2668 time(s)
Russian Federation


(IMG:http://metalarea.org/images/audiocovers/2017_Dec/acov_tid298698_thumb.jpg)

*Artist: Prurient
*Album: Rainbow Mirror
*Year: 2017
*Genre: Doom Electronics/Noise
*Country: United States (IMG:http://metalarea.org/forum/style_images/flags/United%20States.png)
*Format: mp3@CBR320kbps
*Size: 474MB

Tracklist:
01. Barefoot God 05:38
02. Walking On Dehydrated Coral 11:12
03. Midnight Kabar 08:50
04. Chaos-Sex 14:39
05. Falling In The Water 15:22
06. Okinawan Burial Vaults 17:45
07. April Fools Day Aspect Sinister 17:33
08. Cruel Worlds 15:20
09. Naturecum 14:27
10. Blue Kimono Over Corpse 15:08
11. Path Is Short 16:00
12. Buddha Strangled In Vines (Part One) 09:56
13. Buddha Strangled In Vines (Part Two) 18:52
14. Lazarus Flamethrower Sleepwalk 10:12
15. Buddhist State 09:23
******************************
Total playing time: 3:20:17

(IMG:http://metalarea.org/images/youtube.png)
(IMG:http://metalarea.org/images/youtube.png)


Extended info
Marking 20 years of Prurient and Hospital Productions’ concurrent paths, the epic 3 hr 20 minutes of Rainbow Mirror inarguably ranks among Prurient’s most compelling statements. While still the blood child of Dominick Fernow, the album’s massive scope demanded more hands on board, with Jim Mroz (Lussuria) and Matt Folden (Dual Action) lending their expertise before post-production by Shifted and mastering by Paul Corley cemented this towering work of Doom Electronics for the ages.

source: https://vk.com/churchofallimages


Technical info
(IMG:http://metalarea.org/images/spectrogram/2017_Dec/60be5d45b6f2f2348a50a247fab90461.png)
Input File: 01 - Barefoot God.mp3
Channels : 2
Sample Rate : 44100
Precision : 16-bit
Duration : 00:05:39.00 = 14949724 samples = 25424.7 CDDA sectors
File Size : 13.7M
Bit Rate : 323k
Sample Encoding: MPEG audio (layer I, II or III)
Comments :
Title=Barefoot God
Artist=Prurient
Album=Rainbow Mirror
Tracknumber=01/15
Year=2017
Discnumber=1/1



Register


Вернуться к началу страницы
  Insert nick Quick quote
+Цитировать сообщение
 
Создать новую тему
Replies (1 - 5)
post Dec 7 2017, 23:27:13
Post #2

ashes of yesterdays
**********
Group: Металариец
Posts: 1,056
Releases: 8
On Forums: 10 years 10 months
Thanks: 2636 time(s)
Unknown


Отбитейший персонаж. Обмазываюсь потихоньку всяким у него. Здесь Falling In The Water понравилось, затягивает. Lussuria из этого трио тоже помнится интересные треки сочиняет.


Thanks:
(1) Infidel,
Вернуться к началу страницы
  Insert nick Quick quote
+Цитировать сообщение
post Dec 8 2017, 08:09:29
Post #3

а ты попал в даунтаун
********
Group: Металариец
Posts: 883
Releases: 45
From: Москва
On Forums: 9 years 4 hours
Thanks: 2668 time(s)
Russian Federation


В качестве хайлайтов здесь я бы отметил ещё April Fools Day Aspect Sinister (пожалуй, главная жемчужина работы) и все полчаса Buddha Strangled In Vines. Суммарно с Falling In The Water как раз выходит примерно час.
Но альбом и целиком идёт неплохо, эдакий авторский взгляд на эмбиент-музыку. Ассоциации он порождает лично у меня с ядерным пост-апокалипсисом.
Кстати, у Ферноу в этом году вышла и более "прицельная" эмбиент-работа, в рамках Rainforest Spiritual Enslavement, в данном случае - с влиянием даб-техно. Получилось, возможно, даже ещё лучше, чем здесь.
А у Lussuria в этом году тоже новый материал и тоже монструозной длительности - аж 3 часа 47 минут. При этом он хорош, поставил бы его на третье место после Immemorial и Industriale Illuminato.


Thanks:
Вернуться к началу страницы
  Insert nick Quick quote
+Цитировать сообщение
post Dec 11 2017, 21:13:53
Post #4

стазис эпидерсис
***********
Group: Металариец
Posts: 1,709
Releases: 0
On Forums: 2 years 2 months
Thanks: 1044 time(s)
Unknown


кто подскажет, на каком ресурсе можно найти вышеперечисленные проекты.
Вернуться к началу страницы
  Insert nick Quick quote
+Цитировать сообщение
post Dec 11 2017, 21:22:45
Post #5

As Above, so Below
***********
Group: Металариец
Posts: 1,859
Releases: 17
On Forums: 8 years 4 months
Thanks: 3664 time(s)
Russian Federation


ЦИТАТА(garmonbozia @ Dec 11 2017, 23:13:53) *
кто подскажет, на каком ресурсе можно найти вышеперечисленные проекты.

Здесь, например.
Lussuria есть вконтакте или в iTunes.


Thanks:
Вернуться к началу страницы
  Insert nick Quick quote
+Цитировать сообщение
post Dec 15 2017, 09:20:44
Post #6

Девять Литров
*********
Group: Металариец
Posts: 961
Releases: 13
On Forums: 9 years 6 months
Thanks: 781 time(s)
Russian Federation


Раз такое дело, то может кто-нибудь зальет Genocide Organ - Civilization?

garmonbozia, я недавно как раз накачал их дискографию, в основном из вк все, если надо...


Thanks:
Вернуться к началу страницы
  Insert nick Quick quote
+Цитировать сообщение

ОтветитьСоздать новую тему
2 User(s) are reading this topic (2 Guests and 0 Anonymous Users)
0 Members:

 



- Lo-Fi Version Support form
Copyrights and abuse reports form
Time is now: 21st April 2018 - 23:58:03