Welcome Guest ( Log In | Register )

> Frozen Dreams - Journey Through The Realm (2017), Atmospheric Black Metal
post Dec 5 2017, 08:18:23
Post #1

Аннигилятор пивА
Group Icon
Group: V.I.P
Posts: 52,358
Releases: 16557
From: Koenigsberg - TILZIT
On Forums: 13 years 2 months
Thanks: 361863 time(s)
Russian Federation


(IMG:https://metalarea.org/images/audiocovers/2017_Dec/acov_tid298841_thumb.jpg)

*Artist: Frozen Dreams
*Album: Journey Through The Realm
*Year: 2017
*Genre: Atmospheric Black Metal
*Country: United States (IMG:https://metalarea.org/forum/style_images/flags/United%20States.png)
*Format: mp3@CBR320kbps
*Size: 144MB

Tracklist:
1. Oblivion
2. Into the Night
3. Burning Scorn
4. Journey Through the Realm
5. Dawn of Darkness
6. Path to Destruction
7. Reign of Divinity
8. Tears of Crimson
******************************
Total playing time: 1:03:00

Extended info


Technical info
(IMG:https://metalarea.org/images/spectrogram/2017_Dec/29aae57e705d95916e7207205c648abe.png)
Input File: 03 - Burning Scorn.mp3
Channels : 2
Sample Rate : 44100
Precision : 16-bit
Duration : 00:07:19.13 = 19365721 samples = 32934.9 CDDA sectors
File Size : 17.6M
Bit Rate : 321k
Sample Encoding: MPEG audio (layer I, II or III)
Comments :
Title=Burning Scorn
Artist=Frozen Dreams
Album=Journey Through the Realm
Tracknumber=3/8
Year=2017



Register


Go to the top of the page
  Insert nick Quick quote
+Quote Post
 
Start new topic
Replies (1 - 6)
post Dec 5 2017, 09:20:09
Post #2

Аннигилятор пивА
Group Icon
Group: V.I.P
Posts: 52,358
Releases: 16557
From: Koenigsberg - TILZIT
On Forums: 13 years 2 months
Thanks: 361863 time(s)
Russian Federation


MIRROR
Register


Go to the top of the page
  Insert nick Quick quote
+Quote Post
post Dec 7 2017, 01:04:17
Post #3

Правь статус, ####!111
**************
Group: Металариец
Posts: 2,452
Releases: 11
From: Canada
On Forums: 12 years 2 months
Thanks: 1596 time(s)
Canada




Thanks:
(1) artscald,
Go to the top of the page
  Insert nick Quick quote
+Quote Post
post Feb 25 2019, 09:31:58
Post #4

Три Литра
***
Group: Завсегдатай
Posts: 254
Releases: 0
From: Ростова на Дону
On Forums: 10 years 6 months
Thanks: 44 time(s)
Russian Federation


Перезалейте кто-нибудь. ссылку поустарели...
Go to the top of the page
  Insert nick Quick quote
+Quote Post
post Mar 23 2019, 23:55:27
Post #5

Правь статус, ####!111
**************
Group: Металариец
Posts: 6,625
Releases: 0
From: Москва
On Forums: 10 years 2 weeks
Thanks: 12783 time(s)
Russian Federation


Register
320
ссыль не моя


Thanks:
Go to the top of the page
  Insert nick Quick quote
+Quote Post
post Jul 20 2019, 18:41:17
Post #6

Group: Подсевший
Posts: 46
Releases: 0
On Forums: 13 years 9 months
Thanks: 11 time(s)
Russian Federation


Перезалейте, пожалуйста.
Go to the top of the page
  Insert nick Quick quote
+Quote Post
post Jul 25 2019, 09:37:07
Post #7


Group Icon
Group: S-moderation team
Posts: 11,270
Releases: 1438
From: Zagreb
On Forums: 8 years 5 months
Thanks: 48561 time(s)
Croatia


Register


Thanks:
Go to the top of the page
  Insert nick Quick quote
+Quote Post

Reply to this topicStart new topic
2 User(s) are reading this topic (2 Guests and 0 Anonymous Users)
0 Members:

 



- Lo-Fi Version Support form
Copyrights and abuse reports form
Time is now: 19th August 2019 - 10:58:20