Welcome Guest ( Log In | Register )

 
Reply to this topicStart new topic
> Illusive Dimension - New Roads (2017), Progressive Metal/Rock
post Dec 5 2017, 23:50:41
Post #1

Аннигилятор пивА
Group Icon
Group: V.I.P
Posts: 48,076
Releases: 14582
From: Koenigsberg - TILZIT
On Forums: 12 years 2 months
Thanks: 321087 time(s)
Russian Federation


(IMG:https://metalarea.org/images/audiocovers/2017_Dec/acov_tid298878_thumb.jpg)

*Artist: Illusive Dimension
*Album: New Roads
*Year: 2017
*Genre: Progressive Metal/Rock
*Country: Argentina (IMG:https://metalarea.org/forum/style_images/flags/Argentina.png)
*Format: mp3@CBR320kbps
*Size: 129MB

Tracklist:
01. Dreaming Awake (Intro)
02. The Messenger
03. Searching Out
04. Cylce Of Life, Pt. 1: Ephemeral Chaos
05. Cylce Of Life, Pt. 2: Desolation
06. Cylce Of Life, Pt. 3: Tempus Fugit
07. Cylce Of Life, Pt. 4: Underworld Souls
08. Memories
09. New Roads
10. Hope
******************************
Total playing time: 56:02



Extended info
Nahuel Mendez - Vocal
Augusto Díaz Guastavino - Guitar
Federico Díaz Guastavino - Bass
Luciano Rego - Keyboard
Rodrigo Chantada - Drums



Technical info
(IMG:https://metalarea.org/images/spectrogram/2017_Dec/1c831cb933e29138d1e7d14afebafa66.png)
Input File: 03 - Searching Out.mp3
Channels : 2
Sample Rate : 44100
Precision : 16-bit
Duration : 00:04:48.39 = 12717779 samples = 21628.9 CDDA sectors
File Size : 11.6M
Bit Rate : 322k
Sample Encoding: MPEG audio (layer I, II or III)
Comments :
Title=Searching Out
Artist=Illusive Dimension
Album=New Roads
Tracknumber=3/10
Year=2017



Register


Go to the top of the page
  Insert nick Quick quote
+Quote Post

Reply to this topicStart new topic
1 User(s) are reading this topic (1 Guests and 0 Anonymous Users)
0 Members:

 



- Lo-Fi Version Support form
Copyrights and abuse reports form
Time is now: 19th August 2018 - 02:29:24