Welcome Guest ( Log In | Register )

> Lasen - Mi Divergencia (2017), Technical Death Metal
post Dec 6 2017, 00:01:32
Post #1

Аннигилятор пивА
Group Icon
Group: V.I.P
Posts: 46,692
Releases: 14016
From: Koenigsberg - TILZIT
On Forums: 11 years 11 months
Thanks: 310831 time(s)
Russian Federation


(IMG:https://metalarea.org/images/audiocovers/2017_Dec/acov_tid298879_thumb.jpg)

*Artist: Lasen
*Album: Mi Divergencia
*Year: 2017
*Genre: Technical Death Metal
*Country: Ecuador (IMG:https://metalarea.org/forum/style_images/flags/Ecuador.png)
*Format: mp3@CBR320kbps
*Size: 74MB

Tracklist:
01. Sangre
02. Culpa
03. Maya
04. Percepcion
05. Caos
06. Ferreo
07. Enzima
08. Eje
09. Divergencia
******************************
Total playing time: 31:46


https://www.amazon.com/dp/B077XTKVLJ/ref=sr...+Mi+Divergencia

Extended info
Олдскульный, жирный и шустрый, с прог-поднаворотами техникал дэт.
• C. Mármol (Guitarra y voces)
• G. Mármol (Teclado y bajo)
• A. Cárdenas (Batería)
• C. Pasmiño (Bajo)


Technical info
(IMG:https://metalarea.org/images/spectrogram/2017_Dec/cd5a49423cee694ea41aa00b7d26c76a.png)
Input File: 02. Culpa.mp3
Channels : 2
Sample Rate : 44100
Precision : 16-bit
Duration : 00:02:23.64 = 6334392 samples = 10772.8 CDDA sectors
File Size : 5.75M
Bit Rate : 320k
Sample Encoding: MPEG audio (layer I, II or III)
Comments :
Title=Culpa
Artist=Lasen
Album=Mi Divergencia
Tracknumber=2/9
Year=2017



Register


Вернуться к началу страницы
  Insert nick Quick quote
+Цитировать сообщение
 
Создать новую тему
Replies (1 - 3)
post Dec 6 2017, 02:16:44
Post #2

Аннигилятор пивА
Group Icon
Group: V.I.P
Posts: 46,692
Releases: 14016
From: Koenigsberg - TILZIT
On Forums: 11 years 11 months
Thanks: 310831 time(s)
Russian Federation


mirror
Register


Вот, можно послушать 3 трэка, ниже демо-видео 2010 года, я так понял это ранее не изданный, ремастированный альбом примерно тех лет, это единственный у них альбом чисто в стиле дэз метал







Вернуться к началу страницы
  Insert nick Quick quote
+Цитировать сообщение
post Dec 6 2017, 02:42:38
Post #3

Два Литра
**
Group: Завсегдатай
Posts: 137
Releases: 0
From: Россия
On Forums: 6 years 3 months
Thanks: 44 time(s)
Russian Federation


Grabación de Batería realizada para el álbum "Mi Divergencia" de "Lasen" 2010



Подумаешь,какая на арее кому разница,2010 или 2017
Вернуться к началу страницы
  Insert nick Quick quote
+Цитировать сообщение
post Dec 6 2017, 04:31:29
Post #4

Group: Дух
Posts: 9
Releases: 0
On Forums: 4 years 9 months
Thanks: 1 time(s)
Russian Federation


ЦИТАТА(Kehl05 @ Dec 6 2017, 05:42:38) *
Grabación de Batería realizada para el álbum "Mi Divergencia" de "Lasen" 2010



Подумаешь,какая на арее кому разница,2010 или 2017

демагогия ибо автор релиза всё подробно объяснил


Thanks:
Вернуться к началу страницы
  Insert nick Quick quote
+Цитировать сообщение

ОтветитьСоздать новую тему
1 User(s) are reading this topic (1 Guests and 0 Anonymous Users)
0 Members:

 



- Lo-Fi Version Support form
Copyrights and abuse reports form
Time is now: 20th May 2018 - 15:01:38