Welcome Guest ( Log In | Register )

> Spectral - Under Critical Conditions (2017), Death/Thrash Metal
post Dec 6 2017, 02:46:03
Post #1

Правь статус, ####!111
**************
Group: Металариец
Posts: 15,000
Releases: 10277
From: Г.Харьков
On Forums: 6 years 6 months
Thanks: 169661 time(s)
Unknown


(IMG:http://metalarea.org/images/audiocovers/2017_Dec/acov_tid298880_thumb.jpg)

*Artist: Spectral
*Album: Under Critical Conditions
*Year: 2017
*Genre: Death/Thrash Metal
*Country: Chile (IMG:http://metalarea.org/forum/style_images/flags/Chile.png)
*Format: mp3@CBR320kbps
*Size: 75MB

Tracklist:
1. The Spectrum of Apocalypse 02:47
2. Death Dealer 04:03
3. The Abyss 05:07
4. Blind Souls 02:24
5. This Night a Soul Dies 03:45
6. Days of Suffering 03:55
7. Temple of Lies 06:16
8. Predestined Infinity 04:52
******************************
Total playing time: 33:09



Extended info
Jorge Huici - Vocal/Bass
Danilo Mazuela - Drums
Rodrigo Fuentes - Lead Guitar
Víctor Román - Lead Guitar




Technical info
(IMG:http://metalarea.org/images/spectrogram/2017_Dec/cb636e366337d8cb76dde47b5087ed31.png)
Input File: 03 - The Abyss.mp3
Channels : 2
Sample Rate : 44100
Precision : 16-bit
Duration : 00:05:07.21 = 13547961 samples = 23040.8 CDDA sectors
File Size : 12.3M
Bit Rate : 320k
Sample Encoding: MPEG audio (layer I, II or III)
Comments :
Title=The Abyss
Artist=Spectral
Album=Under Critical Conditions
Tracknumber=3
Year=2017
Genre=Death Metal



Register


Go to the top of the page
  Insert nick Quick quote
+Quote Post
 
Start new topic
Replies (1 - 1)
post Dec 6 2017, 15:51:28
Post #2

Мегаманьяк
***********
Group: Металариец
Posts: 1,635
Releases: 0
From: Dnipro
On Forums: 10 years 4 months
Thanks: 428 time(s)
Ukraine


Больше на самый настоящий олдскул конца 80-ых начало 90-ых смахивает.
Go to the top of the page
  Insert nick Quick quote
+Quote Post

Reply to this topicStart new topic
1 User(s) are reading this topic (1 Guests and 0 Anonymous Users)
0 Members:

 



- Lo-Fi Version Support form
Copyrights and abuse reports form
Time is now: 19th November 2018 - 19:18:22