Welcome Guest ( Log In | Register )

> Ethereal Kingdoms - Ethereal Kingdoms [ep] (2017), Symphonic Metal
post Dec 6 2017, 09:07:33
Post #1

Аннигилятор пивА
Group Icon
Group: V.I.P
Posts: 46,692
Releases: 14016
From: Koenigsberg - TILZIT
On Forums: 11 years 11 months
Thanks: 310831 time(s)
Russian Federation


(IMG:https://metalarea.org/images/audiocovers/2017_Dec/acov_tid298883_thumb.jpg)

*Artist: Ethereal Kingdoms
*Album: Ethereal Kingdoms [ep]
*Year: 2017
*Genre: Symphonic Metal
*Country: Denmark (IMG:https://metalarea.org/forum/style_images/flags/Denmark.png)
*Format: mp3@CBR320kbps
*Size: 37MB

Tracklist:
01. Storm
02. Fejlens Cirkel
03. Paper Stars
04. Sovereign
******************************
Total playing time: 17:35



Extended info
Copenhagen-based symphonic metal project.
Elegant vocal lines, headbangable and aggressive riffs and intricate orchestrations explore contrasts and tension in the sound, which is Ethereal Kingdoms

Sofia Schmidt - Vocals, Orchestration
Christian Rasmussen - Guitar
Jakob Holm - Bass
Christian Christiansen - Guitar
Emil Frøsing - Drums


Technical info
(IMG:https://metalarea.org/images/spectrogram/2017_Dec/904058093b9f3b6e50987f279da55396.png)
Input File: 02 - Fejlens Cirkel.mp3
Channels : 2
Sample Rate : 44100
Precision : 16-bit
Duration : 00:02:56.58 = 7787222 samples = 13243.6 CDDA sectors
File Size : 7.06M
Bit Rate : 320k
Sample Encoding: MPEG audio (layer I, II or III)
Comments :
Title=Fejlens Cirkel
Artist=Ethereal Kingdoms
Album=Ethereal Kingdoms
Tracknumber=2
Year=2017



Register


Вернуться к началу страницы
  Insert nick Quick quote
+Цитировать сообщение
 
Создать новую тему
Replies (1 - 1)
post Dec 6 2017, 20:24:25
Post #2

Победитель судьбы
**************
Group: Металариец
Posts: 4,954
Releases: 0
From: Страны Мамонтов
On Forums: 11 years 2 months
Thanks: 1689 time(s)
Antarctica


А что, в Копенгагене имеется какая-то сильная школа симфоник-метала?
Вернуться к началу страницы
  Insert nick Quick quote
+Цитировать сообщение

ОтветитьСоздать новую тему
1 User(s) are reading this topic (1 Guests and 0 Anonymous Users)
0 Members:

 



- Lo-Fi Version Support form
Copyrights and abuse reports form
Time is now: 20th May 2018 - 15:03:29