Welcome Guest ( Log In | Register )

> Blind Mirror - Still Blind (1994), Thrash/Power/Speed Metal
post Dec 6 2017, 09:13:47
Post #1

Join my religion, or die
**************
Group: Металариец
Posts: 9,393
Releases: 1124
From: Питера
On Forums: 8 years 4 months
Thanks: 15261 time(s)
Russian Federation


(IMG:https://metalarea.org/images/audiocovers/2017_Dec/acov_tid298885_thumb.jpg)

*Artist: Blind Mirror
*Album: Still Blind
*Year: 1994
*Genre: Thrash/Power/Speed Metal
*Country: Italy (IMG:https://metalarea.org/forum/style_images/flags/Italy.png)
*Format: mp3@CBR320kbps
*Size: 110MB

Tracklist:
01. Empty
02. Still Blind
03. Under Pressure
04. Wrapped In The Dark
05. Immensity Of A Moment
06. Void
07. Sensazioni
08. Into Nowhere
09. Dreams
10. Illusions
******************************
Total playing time: 47:49

Technical info
(IMG:https://metalarea.org/images/spectrogram/2017_Dec/0d5cf046f72aafee8d804035985f6140.png)
Input File: 02 Still Blind.mp3
Channels : 2
Sample Rate : 44100
Precision : 16-bit
Duration : 00:05:38.26 = 14917354 samples = 25369.6 CDDA sectors
File Size : 13.7M
Bit Rate : 323k
Sample Encoding: MPEG audio (layer I, II or III)
Comments :
Title=Still Blind
Artist=Blind Mirror
Album=1994 Still Blind
Tracknumber=02/10
Year=1994
Genre=Thrash/Power/Speed Metal



Register


Вернуться к началу страницы
  Insert nick Quick quote
+Цитировать сообщение
 
Создать новую тему
Replies (1 - 2)
post Feb 18 2018, 20:12:49
Post #2

Два Литра
**
Group: Завсегдатай
Posts: 101
Releases: 0
On Forums: 8 years 9 months
Thanks: 4 time(s)
United States


Please new link. Old one is dead.
Вернуться к началу страницы
  Insert nick Quick quote
+Цитировать сообщение
post Feb 18 2018, 22:05:12
Post #3

Forever Underground
**************
Group: Металариец
Posts: 3,491
Releases: 0
On Forums: 2 years 10 months
Thanks: 2612 time(s)
Unknown


QUOTE(stumpheavyrock @ Feb 18 2018, 20:12:49) *
Please new link. Old one is dead.

same properties:
Register


Thanks:
(1) pichileon,
Вернуться к началу страницы
  Insert nick Quick quote
+Цитировать сообщение

ОтветитьСоздать новую тему
1 User(s) are reading this topic (1 Guests and 0 Anonymous Users)
0 Members:

 



- Lo-Fi Version Support form
Copyrights and abuse reports form
Time is now: 22nd February 2018 - 23:15:24