Welcome Guest ( Log In | Register )

> Blind Mirror - Still Blind (1994), Thrash/Power/Speed Metal
post Dec 6 2017, 09:13:47
Post #1

Join my religion, or die
**************
Group: Металариец
Posts: 9,687
Releases: 1161
From: Питера
On Forums: 9 years 1 month
Thanks: 15878 time(s)
Russian Federation


(IMG:https://metalarea.org/images/audiocovers/2017_Dec/acov_tid298885_thumb.jpg)

*Artist: Blind Mirror
*Album: Still Blind
*Year: 1994
*Genre: Thrash/Power/Speed Metal
*Country: Italy (IMG:https://metalarea.org/forum/style_images/flags/Italy.png)
*Format: mp3@CBR320kbps
*Size: 110MB

Tracklist:
01. Empty
02. Still Blind
03. Under Pressure
04. Wrapped In The Dark
05. Immensity Of A Moment
06. Void
07. Sensazioni
08. Into Nowhere
09. Dreams
10. Illusions
******************************
Total playing time: 47:49

Technical info
(IMG:https://metalarea.org/images/spectrogram/2017_Dec/0d5cf046f72aafee8d804035985f6140.png)
Input File: 02 Still Blind.mp3
Channels : 2
Sample Rate : 44100
Precision : 16-bit
Duration : 00:05:38.26 = 14917354 samples = 25369.6 CDDA sectors
File Size : 13.7M
Bit Rate : 323k
Sample Encoding: MPEG audio (layer I, II or III)
Comments :
Title=Still Blind
Artist=Blind Mirror
Album=1994 Still Blind
Tracknumber=02/10
Year=1994
Genre=Thrash/Power/Speed Metal



Register


Go to the top of the page
  Insert nick Quick quote
+Quote Post
 
Start new topic
Replies (1 - 4)
post Feb 18 2018, 20:12:49
Post #2

Два Литра
**
Group: Завсегдатай
Posts: 111
Releases: 0
From: USA
On Forums: 9 years 6 months
Thanks: 9 time(s)
United States


Please new link. Old one is dead.
Go to the top of the page
  Insert nick Quick quote
+Quote Post
post Feb 18 2018, 22:05:12
Post #3

Forever Underground
**************
Group: Металариец
Posts: 5,047
Releases: 0
On Forums: 3 years 7 months
Thanks: 4571 time(s)
Unknown


QUOTE(stumpheavyrock @ Feb 18 2018, 20:12:49) *
Please new link. Old one is dead.

same properties:
Register


Go to the top of the page
  Insert nick Quick quote
+Quote Post
post Mar 5 2018, 20:28:55
Post #4

Два Литра
**
Group: Завсегдатай
Posts: 111
Releases: 0
From: USA
On Forums: 9 years 6 months
Thanks: 9 time(s)
United States


Thanks for the reup.
Go to the top of the page
  Insert nick Quick quote
+Quote Post
post Apr 21 2018, 08:52:41
Post #5

Forever Underground
**************
Group: Металариец
Posts: 5,047
Releases: 0
On Forums: 3 years 7 months
Thanks: 4571 time(s)
Unknown


QUOTE(stumpheavyrock @ Mar 5 2018, 21:28:55) *
Thanks for the reup.

To click on "Thanks" button (see below any user's nickname...) it's enough (IMG:style_emoticons/default/9.gif) (IMG:style_emoticons/default/bye.gif)
Go to the top of the page
  Insert nick Quick quote
+Quote Post

Reply to this topicStart new topic
1 User(s) are reading this topic (1 Guests and 0 Anonymous Users)
0 Members:

 



- Lo-Fi Version Support form
Copyrights and abuse reports form
Time is now: 13th November 2018 - 17:18:52