Welcome Guest ( Log In | Register )

> Sleazy Wizard - Stone Dead (1997), Thrash/Heavy Metal
post Dec 6 2017, 10:20:43
Post #1

Подвал
**************
Group: Металариец
Posts: 11,785
Releases: 6655
From: Far East (Khabarovsk)
On Forums: 9 years 3 weeks
Thanks: 60336 time(s)
Russian Federation


(IMG:https://metalarea.org/images/audiocovers/2017_Dec/acov_tid298886_thumb.jpg)

*Artist: Sleazy Wizard
*Album: Stone Dead
*Year: 1997
*Genre: Thrash/Heavy Metal
*Country: Japan (IMG:https://metalarea.org/forum/style_images/flags/Japan.png)
*Format: mp3@VBR264kbps
*Size: 88MB

Tracklist:
1. Nameless Riot 02:45
2. Defend My Pride 04:54
3. Where's My Needle 04:55
4. Lookin' For Fun 03:52
5. Stone Dead Rocker 06:25
6. Ghost Of Past 04:42
7. Chained 03:37
8. Another Phase Of Truth 06:58
9. You Must Be The Star 05:02
10. She Got A Sleaze Dream 02:39
******************************
Total playing time: 45:49

Technical info
(IMG:https://metalarea.org/images/spectrogram/2017_Dec/9bb0a2ffa7c546edbba83e8414d3b45e.png)
Input File: 01-Nameless Riot.mp3
Channels : 2
Sample Rate : 44100
Precision : 16-bit
Duration : 00:02:44.65 = 7261021 samples = 12348.7 CDDA sectors
File Size : 5.73M
Bit Rate : 278k
Sample Encoding: MPEG audio (layer I, II or III)
Comments :
Title=Nameless Riot
Artist=Sleazy Wizard
Album=Stone Dead
Tracknumber=1
Year=1997
Genre=Metal



Register


Вернуться к началу страницы
  Insert nick Quick quote
+Цитировать сообщение
 
Создать новую тему
Replies (1 - 3)
post Dec 7 2017, 07:35:28
Post #2

hearer & reader
**************
Group: Металариец
Posts: 5,989
Releases: 78
From: Moscow
On Forums: 10 years 5 months
Thanks: 6219 time(s)
Russian Federation



(IMG:style_emoticons/default/banana.gif)

Явно переиздание.
А хэви где? В последнем треке? (IMG:style_emoticons/default/1488.gif)


Thanks:
(1) samokot,
Вернуться к началу страницы
  Insert nick Quick quote
+Цитировать сообщение
post Dec 7 2017, 09:26:36
Post #3

Правь статус, ####!111
**************
Group: Металариец
Posts: 5,060
Releases: 0
From: Primorye.ru
On Forums: 6 years 11 months
Thanks: 944 time(s)
Russian Federation


Я не не в курсе был о スレージー・ウィザード. Достойно (IMG:style_emoticons/default/metaler.gif) И да, heavy не услышал.
Вернуться к началу страницы
  Insert nick Quick quote
+Цитировать сообщение
post Dec 31 2017, 17:41:09
Post #4

Group: Подсевший
Posts: 42
Releases: 0
On Forums: 7 years 6 months
Thanks: 2 time(s)
Unknown


хэви нет и впомине, трэш на 3...-проходняк
Вернуться к началу страницы
  Insert nick Quick quote
+Цитировать сообщение

ОтветитьСоздать новую тему
1 User(s) are reading this topic (1 Guests and 0 Anonymous Users)
0 Members:

 



- Lo-Fi Version Support form
Copyrights and abuse reports form
Time is now: 22nd February 2018 - 23:12:48