Welcome Guest ( Log In | Register )

 
ОтветитьСоздать новую тему
> Disaster Area - Demo 2 [demo] (1991), Heavy/Thrash Metal (D4)
post Dec 6 2017, 10:57:01
Post #1

Подвал
**************
Group: Металариец
Posts: 11,785
Releases: 6655
From: Far East (Khabarovsk)
On Forums: 9 years 3 weeks
Thanks: 60336 time(s)
Russian Federation


(IMG:https://metalarea.org/images/audiocovers/2017_Dec/acov_tid298887.jpg)

*Artist: Disaster Area
*Album: Demo 2 [demo]
*Year: 1991
*Genre: Heavy/Thrash Metal
*Country: United States (IMG:https://metalarea.org/forum/style_images/flags/United%20States.png)
*Format: mp3@CBR320kbps
*Size: 64MB

Tracklist:
1. Might Makes Right 05:57
2. Menace To Society 04:53
3. 21st Century Schizoid 05:10
4. The Vigilante 06:23
5. Lord Of The Flies 07:45
******************************
Total playing time: 30:08

Extended info
Band from Rowland Heights, California.


Technical info
(IMG:https://metalarea.org/images/spectrogram/2017_Dec/34cb99b3387dd1e1b45ce7e3bcc7995f.png)
Input File: 01-Might Makes Right.mp3
Channels : 2
Sample Rate : 44100
Precision : 16-bit
Duration : 00:05:57.00 = 15743700 samples = 26775 CDDA sectors
File Size : 14.3M
Bit Rate : 320k
Sample Encoding: MPEG audio (layer I, II or III)
Comments :
Title=Might Makes Right
Artist=Disaster Area (US, CA)
Album=Demo 2
Tracknumber=01
Year=1991
Genre=Thrash Metal



Register


Вернуться к началу страницы
  Insert nick Quick quote
+Цитировать сообщение

ОтветитьСоздать новую тему
1 User(s) are reading this topic (1 Guests and 0 Anonymous Users)
0 Members:

 



- Lo-Fi Version Support form
Copyrights and abuse reports form
Time is now: 22nd February 2018 - 23:22:41