Welcome Guest ( Log In | Register )

> Cenotafio - La Fatídica Excrecencia De La Subtierra (2017), Black/Death Metal
post Dec 6 2017, 11:18:58
Post #1

Правь статус, ####!111
**************
Group: Металариец
Posts: 12,979
Releases: 9229
From: Г.Харьков
On Forums: 6 years 1 week
Thanks: 150095 time(s)
Unknown


(IMG:http://metalarea.org/images/audiocovers/2017_Dec/acov_tid298888_thumb.jpg)

*Artist: Cenotafio
*Album: La Fatídica Excrecencia De La Subtierra
*Year: 2017
*Genre: Black/Death Metal
*Country: Chile (IMG:http://metalarea.org/forum/style_images/flags/Chile.png)
*Format: mp3@CBR320kbps
*Size: 104MB

Tracklist:
1. (Intro) Remedium. Morbus. Mors 10:23
2. Secesión / La carnal Tribulación (Interludio) 09:44
3. Letargo a su Posterior Hipnosis 09:47
4. Lo que Encierra una Revelación 06:48
5. Disnea Universal (Outro) 08:59
******************************
Total playing time: 45:41

(IMG:http://metalarea.org/images/youtube.png)

Extended info
CD-rip(есть флак с куями и логами)


Technical info
(IMG:http://metalarea.org/images/spectrogram/2017_Dec/0176290b7669f3ed143da597171c4cab.png)
Input File: 02 Secesi?n , La carnal tribulaci?n.mp3
Channels : 2
Sample Rate : 44100
Precision : 16-bit
Duration : 00:09:44.52 = 25777376 samples = 43839.1 CDDA sectors
File Size : 23.4M
Bit Rate : 320k
Sample Encoding: MPEG audio (layer I, II or III)
Comments :
Title=SecesiГіn / La carnal tribulaciГіn
Artist=Cenotafio
Album=La fatГ­dica excrecencia de la subtierra
Tracknumber=2
Year=2017
Genre=Black Metal



Register


Вернуться к началу страницы
  Insert nick Quick quote
+Цитировать сообщение
 
Создать новую тему
Replies (1 - 5)
post Dec 6 2017, 14:25:39
Post #2

Group: Подсевший
Posts: 21
Releases: 0
On Forums: 7 months 9 hours
Thanks: 28 time(s)
Russian Federation


в итоге получаем 128 kbps


Thanks:
(1) ingram,
Вернуться к началу страницы
  Insert nick Quick quote
+Цитировать сообщение
post Dec 6 2017, 22:59:34
Post #3

Победитель судьбы
**************
Group: Металариец
Posts: 4,954
Releases: 0
From: Страны Мамонтов
On Forums: 11 years 3 months
Thanks: 1690 time(s)
Antarctica


Атмосферу чуваки создали на альбоме реально зловещую и потустороннюю



Thanks:
(1) SSBandera,
Вернуться к началу страницы
  Insert nick Quick quote
+Цитировать сообщение
post Dec 6 2017, 23:00:44
Post #4

Group: Дух
Posts: 1
Releases: 0
On Forums: 4 years 3 months
Thanks: 1 time(s)
Arab League


(IMG:https://i.imgur.com/VuNEeU3.png)

странный 320 какой-то...


Thanks:
Вернуться к началу страницы
  Insert nick Quick quote
+Цитировать сообщение
post Dec 6 2017, 23:25:26
Post #5

Девять Литров
*********
Group: Металариец
Posts: 959
Releases: 0
On Forums: 7 years 1 week
Thanks: 397 time(s)
Unknown


QUOTE(ingram @ Dec 6 2017, 22:00:44) *
https://i.imgur.com/VuNEeU3.png

странный 320 какой-то...


Bandcamp link?
Вернуться к началу страницы
  Insert nick Quick quote
+Цитировать сообщение
post Dec 8 2017, 06:49:52
Post #6

..ще до загибелі
**********
Group: Металариец
Posts: 1,096
Releases: 0
From: Мати Руських Міст
On Forums: 7 years 2 months
Thanks: 836 time(s)
American Samoa


ага, не фуфлыжный дуетик (IMG:style_emoticons/default/9.gif)
Вернуться к началу страницы
  Insert nick Quick quote
+Цитировать сообщение

ОтветитьСоздать новую тему
1 User(s) are reading this topic (1 Guests and 0 Anonymous Users)
0 Members:

 



- Lo-Fi Version Support form
Copyrights and abuse reports form
Time is now: 22nd May 2018 - 20:10:08