Welcome Guest ( Log In | Register )

> Lunar Hollow - Desolation [single] (2017), Depressive Black Metal
post Dec 6 2017, 14:20:07
Post #1

Время Мары
**************
Group: Металариец
Posts: 2,917
Releases: 373
From: Харьков
On Forums: 9 years 2 months
Thanks: 7127 time(s)
Ukraine


(IMG:http://metalarea.org/images/audiocovers/2017_Dec/acov_tid298889_thumb.jpg)

*Artist: Lunar Hollow
*Album: Desolation [single]
*Year: 2017
*Genre: Depressive Black Metal
*Country: Russian Federation (IMG:http://metalarea.org/forum/style_images/flags/Russian%20Federation.png)
*Format: mp3@CBR320kbps
*Size: 17MB

Tracklist:
1. Desolation
******************************
Total playing time: 7:24

Technical info
(IMG:http://metalarea.org/images/spectrogram/2017_Dec/d1ead26d91504636e578ca1e77f58145.png)
Input File: 01. Desolation.mp3
Channels : 2
Sample Rate : 44100
Precision : 16-bit
Duration : 00:07:23.98 = 19579474 samples = 33298.4 CDDA sectors
File Size : 18.0M
Bit Rate : 324k
Sample Encoding: MPEG audio (layer I, II or III)
Comments :
Title=Desolation
Artist=Lunar Hollow
Album=Desolation
Tracknumber=01/01
Year=2017
Genre=Depressive Black Metal
Discnumber=01/01



Register


Go to the top of the page
  Insert nick Quick quote
+Quote Post
 
Start new topic
Replies (1 - 1)
post Dec 8 2017, 00:48:54
Post #2

Правь статус, ####!111
**************
Group: Металариец
Posts: 2,388
Releases: 11
From: Canada
On Forums: 11 years 2 months
Thanks: 1500 time(s)
Canada


Go to the top of the page
  Insert nick Quick quote
+Quote Post

Reply to this topicStart new topic
1 User(s) are reading this topic (1 Guests and 0 Anonymous Users)
0 Members:

 



- Lo-Fi Version Support form
Copyrights and abuse reports form
Time is now: 19th August 2018 - 02:29:37