Welcome Guest ( Log In | Register )

 
ОтветитьСоздать новую тему
> Aedes Aegypti & Millions Of Dead Parazites - Pathological Ways Of Surgery [split] (2017), Experimental Goregrind/Cybergrind | Goregrind/Noisegrind
post Dec 6 2017, 14:50:20
Post #1

Serial Uploader
Group Icon
Group: V.I.P
Posts: 31,462
Releases: 29796
From: Lithuania
On Forums: 9 years 8 months
Thanks: 342013 time(s)
Lithuania


(IMG:https://metalarea.org/images/audiocovers/2017_Dec/acov_tid298890_thumb.jpg)

*Artist: Aedes Aegypti & Millions Of Dead Parazites
*Album: Pathological Ways Of Surgery [split]
*Year: 2017
*Genre: Experimental Goregrind/Cybergrind | Goregrind/Noisegrind
*Country: Bosnia and Herzegovina (IMG:https://metalarea.org/forum/style_images/flags/Bosnia%20and%20Herzegovina.png) | Bosnia and Herzegovina (IMG:https://metalarea.org/forum/style_images/flags/Bosnia%20and%20Herzegovina.png)
*Format: mp3@CBR320kbps
*Size: 70MB

Tracklist:
Aedes Aegypti:
01. Chikungunya 03:40
02. Dengue 02:59
03. Virus Mayaro 02:56
04. Virus Zika 03:12
05. Fiebre Amarilla 01:30
06. Culicido Aedes Aegypti 01:55
Millions Of Dead Parazites:
07. Trichomonas Vaginalis 01:33
08. Anal Psoriasis 02:15
09. Coagulated Blood Cocktail 01:38
10. Triquinosis En El Epididimio (Feat. Septicemia) 02:19
11. Monstruous Prostate Tumour Removal 02:27
12. Necrozoofilia Ruined My Life 03:22
******************************
Total playing time: 29:46




Technical info
(IMG:https://metalarea.org/images/spectrogram/2017_Dec/9ac74323f2b427451c6cfec5e4636759.png)
Input File: 08. Anal Psoriasis.mp3
Channels : 2
Sample Rate : 44100
Precision : 16-bit
Duration : 00:02:15.74 = 5986310 samples = 10180.8 CDDA sectors
File Size : 5.63M
Bit Rate : 332k
Sample Encoding: MPEG audio (layer I, II or III)
Comments :
Title=Millions of dead parazites - Anal Psoriasis
Artist=Aedes Aegipty / Millions of dead parazites
Album=Pathological Ways Of Surgery
Tracknumber=8
Year=2017



Register


Thanks:
Вернуться к началу страницы
  Insert nick Quick quote
+Цитировать сообщение

ОтветитьСоздать новую тему
1 User(s) are reading this topic (1 Guests and 0 Anonymous Users)
0 Members:

 



- Lo-Fi Version Support form
Copyrights and abuse reports form
Time is now: 22nd February 2018 - 23:17:19