Welcome Guest ( Log In | Register )

 
Reply to this topicStart new topic
> Apparatus - Cthulhu III [ep] (2017), Experimental Blackened Death Metal (D6)
post Dec 6 2017, 14:57:52
Post #1

Grind the Human Scum
*********
Group: Металариец
Posts: 919
Releases: 18
On Forums: 11 years 10 months
Thanks: 835 time(s)
Russian Federation


(IMG:http://metalarea.org/images/audiocovers/2017_Dec/acov_tid298891_thumb.jpg)

*Artist: Apparatus
*Album: Cthulhu III [ep]
*Year: 2017
*Genre: Experimental Blackened Death Metal
*Country: Denmark (IMG:http://metalarea.org/forum/style_images/flags/Denmark.png)
*Format: mp3@CBR320kbps
*Size: 31MB

Tracklist:
1. IX 13:09
******************************
Total playing time: 13:09



Extended info
Miskatonic Death Metal


Technical info
(IMG:http://metalarea.org/images/spectrogram/2017_Dec/f7188f8a797772828445bc800d4aeef4.png)
Input File: 01. IX.mp3
Channels : 2
Sample Rate : 44100
Precision : 16-bit
Duration : 00:13:09.70 = 34825902 samples = 59227.7 CDDA sectors
File Size : 31.6M
Bit Rate : 321k
Sample Encoding: MPEG audio (layer I, II or III)
Comments :
Title=IX
Artist=Apparatus
Album=Cthulhu III
Tracknumber=1
Year=2017



Register


Go to the top of the page
  Insert nick Quick quote
+Quote Post

Reply to this topicStart new topic
1 User(s) are reading this topic (1 Guests and 0 Anonymous Users)
0 Members:

 



- Lo-Fi Version Support form
Copyrights and abuse reports form
Time is now: 19th November 2018 - 18:53:10