Welcome Guest ( Log In | Register )

 
ОтветитьСоздать новую тему
> Perky Macabre - Journey Of The Blowfly [ep] (2017), Grindcore (D25)
post Dec 6 2017, 15:14:41
Post #1

Serial Uploader
Group Icon
Group: V.I.P
Posts: 31,462
Releases: 29796
From: Lithuania
On Forums: 9 years 8 months
Thanks: 342017 time(s)
Lithuania


(IMG:https://metalarea.org/images/audiocovers/2017_Dec/acov_tid298892_thumb.jpg)

*Artist: Perky Macabre
*Album: Journey Of The Blowfly [ep]
*Year: 2017
*Genre: Grindcore
*Country: United States (IMG:https://metalarea.org/forum/style_images/flags/United%20States.png)
*Format: mp3@VBR215kbps
*Size: 7MB

Tracklist:
01. Seeping Wounds 00:27
02. Headless In A Sundress 00:20
03. Spit On Your Bones 00:28
04. Dead Body Twitching 00:15
05. Journey Of The Blowfly 00:07
06. The Rot Of Human Life 00:12
07. Pale Blue Emptiness 00:18
08. Coffin Distortions 00:15
09. Visions Of Death 00:43
10. Skinless Fetish 00:51
11. Slit Your Throat 00:30
******************************
Total playing time: 4:26



Technical info
(IMG:https://metalarea.org/images/spectrogram/2017_Dec/656ac2b5e94d2c7e90c18054e73edc00.png)
Input File: 02. Headless In A Sundress.mp3
Channels : 2
Sample Rate : 44100
Precision : 16-bit
Duration : 00:00:20.74 = 914678 samples = 1555.57 CDDA sectors
File Size : 639k
Bit Rate : 246k
Sample Encoding: MPEG audio (layer I, II or III)
Comments :
Title=Headless In A Sundress
Artist=Perky Macabre
Album=Journey Of The Blowfly
Tracknumber=2
Year=2017



Register


Thanks:
Вернуться к началу страницы
  Insert nick Quick quote
+Цитировать сообщение

ОтветитьСоздать новую тему
1 User(s) are reading this topic (1 Guests and 0 Anonymous Users)
0 Members:

 



- Lo-Fi Version Support form
Copyrights and abuse reports form
Time is now: 22nd February 2018 - 23:23:02