Welcome Guest ( Log In | Register )

 
Reply to this topicStart new topic
> Tortured Animals - Revenging High​-​Class Species [ep] (2017), Brutal Death Metal
post Dec 6 2017, 15:41:39
Post #1

Serial Uploader
Group Icon
Group: V.I.P
Posts: 33,297
Releases: 31568
From: Lithuania
On Forums: 10 years 5 months
Thanks: 360696 time(s)
Lithuania


(IMG:https://metalarea.org/images/audiocovers/2017_Dec/acov_tid298893_thumb.jpg)

*Artist: Tortured Animals
*Album: Revenging High​-​Class Species [ep]
*Year: 2017
*Genre: Brutal Death Metal
*Country: Thailand (IMG:https://metalarea.org/forum/style_images/flags/Thailand.png)
*Format: mp3@CBR320kbps
*Size: 27MB

Tracklist:
01. Gadhimai Festival 04:05
02. Hate The Human Race 04:32
03. After The Extinction Of Mankind 04:52
******************************
Total playing time: 13:29



(IMG:https://metalarea.org/images/youtube.png)

Technical info
(IMG:https://metalarea.org/images/spectrogram/2017_Dec/61ad8465f67f7605d619f91daa217e40.png)
Input File: 02. Hate The Human Race.mp3
Channels : 2
Sample Rate : 44100
Precision : 16-bit
Duration : 00:04:32.65 = 12023997 samples = 20449 CDDA sectors
File Size : 10.9M
Bit Rate : 320k
Sample Encoding: MPEG audio (layer I, II or III)
Comments :
Title=Hate The Human Race
Artist=Tortured Animal
Album=Revenging High-Class Species (EP)
Tracknumber=2
Year=2017
Genre=Brutal Death Metal



Register


Go to the top of the page
  Insert nick Quick quote
+Quote Post

Reply to this topicStart new topic
1 User(s) are reading this topic (1 Guests and 0 Anonymous Users)
0 Members:

 



- Lo-Fi Version Support form
Copyrights and abuse reports form
Time is now: 19th November 2018 - 19:02:32