Welcome Guest ( Log In | Register )

> И неформату есть предел.

Рэп/хип-хоп/шансон/поп удаляются. Для них есть свои порталы.

> Nhor - Wildflowers: Winter [ep] (2017), Neoclassical Ambient (D10)
post Dec 6 2017, 16:51:14
Post #1

Литр
*
Group: Подсевший
Posts: 81
Releases: 45
On Forums: 5 years 5 months
Thanks: 1014 time(s)
Unknown


(IMG:http://metalarea.org/images/audiocovers/2017_Dec/acov_tid298894_thumb.jpg)

*Artist: Nhor
*Album: Wildflowers: Winter [ep]
*Year: 2017
*Genre: Neoclassical Ambient
*Country: United Kingdom (IMG:http://metalarea.org/forum/style_images/flags/United%20Kingdom.png)
*Format: mp3@CBR320kbps
*Size: 52MB

Tracklist:
01. Bereft 04:31
02. Murmurations Above Me 02:27
03. Owls Through Snowfall 03:21
04. Wreaths Of Hoarfrost 03:28
05. The Moon Belongs To All And None 01:26
06. They Leave No Trace 03:58
07. Mercy 02:30
******************************
Total playing time: 21:41



Extended info
Personal purchase.

"Wildflowers: Winter" is the fourth and last EP release of Nhor's musical cycle about the natural seasons. Just as the previous EPs it's only available digitally and in a small cassette print-run.

Nhor about "Wildflowers: Winter":

"How did it ever come to this?

Winter hides behind it’s veil. It’s face is still, yet trembling limbs betray the unsettled nature of this season. Will the whole Earth slip away into a cold, lifeless end? Or is there something more beyond that veil?
I now come to think of Autumn as a knife that was thrust into Summer, opening a wound which poured the red and gold lifeblood onto the forests floor. If Autumn was indeed the knife and wound in Summer’s ripe flesh, then Winter is the bones now left exposed, the raw skeleton that not only reveals the true landscape and architecture of our forests, but also remnants of the ancient nature found within ourselves.

I feel myself decay. The space between notes has become so fragile. I dare not break the frail silence. It is strange to consider, but it feels like I’m regaining memories, as if I have remembered who I truly am, and was before. Maybe there are bigger shifts within ourselves through the seasons than I had ever cared to consider. I feel akin to the winter trees, bare and with little to give. Perhaps my mind has buried myself in hope of Spring. I have mentioned before that I was born with a heavy heart, and I would consider this season to be full of sorrow, but I feel numb. The season has frozen my mourning. But there are moments when I begin to thaw, and if I shall, then I would flood the starlit forests with my song."


Technical info
(IMG:http://metalarea.org/images/spectrogram/2017_Dec/3b87e3edb44cb450c534195d12cadd6f.png)
Input File: 01 Bereft.mp3
Channels : 2
Sample Rate : 44100
Precision : 16-bit
Duration : 00:04:31.18 = 11958862 samples = 20338.2 CDDA sectors
File Size : 10.9M
Bit Rate : 323k
Sample Encoding: MPEG audio (layer I, II or III)
Comments :
Title=Bereft
Artist=Nhor
Album=Wildflowers: Winter
Tracknumber=1
Year=2017



Register


Вернуться к началу страницы
  Insert nick Quick quote
+Цитировать сообщение
 
Создать новую тему
Replies (1 - 1)
post Dec 6 2017, 17:30:08
Post #2

Литр
*
Group: Подсевший
Posts: 81
Releases: 45
On Forums: 5 years 5 months
Thanks: 1014 time(s)
Unknown


Download FLAC (98 Mb):
Register


Thanks:
Вернуться к началу страницы
  Insert nick Quick quote
+Цитировать сообщение

ОтветитьСоздать новую тему
1 User(s) are reading this topic (1 Guests and 0 Anonymous Users)
0 Members:

 



- Lo-Fi Version Support form
Copyrights and abuse reports form
Time is now: 19th February 2018 - 15:04:39