Welcome Guest ( Log In | Register )

> Somnent - Sojourn (2017), Doom/Death Metal
post Dec 6 2017, 16:54:38
Post #1

Аннигилятор пивА
Group Icon
Group: V.I.P
Posts: 46,692
Releases: 14016
From: Koenigsberg - TILZIT
On Forums: 11 years 11 months
Thanks: 310863 time(s)
Russian Federation


(IMG:https://metalarea.org/images/audiocovers/2017_Dec/acov_tid298895_thumb.jpg)

*Artist: Somnent
*Album: Sojourn
*Year: 2017
*Genre: Doom/Death Metal
*Country: United States (IMG:https://metalarea.org/forum/style_images/flags/United%20States.png)
*Format: mp3@CBR320kbps
*Size: 101MB

Tracklist:
1. Sojourn
2. Deceit
3. The Furtive Longing
4. Unveiled
5. Sojourn Part II
6. A Bitter Ending
7. Closure
******************************
Total playing time: 47:55




Extended info


Technical info
(IMG:https://metalarea.org/images/spectrogram/2017_Dec/cde1dab2b48937d0cba7a33938225fa7.png)
Input File: 02. Deceit.mp3
Channels : 2
Sample Rate : 44100
Precision : 16-bit
Duration : 00:06:44.86 = 17854326 samples = 30364.5 CDDA sectors
File Size : 16.2M
Bit Rate : 320k
Sample Encoding: MPEG audio (layer I, II or III)
Comments :
Title=Deceit
Artist=Somnent
Album=Sojourn
Tracknumber=2
Year=2017



Register


Вернуться к началу страницы
  Insert nick Quick quote
+Цитировать сообщение
 
Создать новую тему
Replies (1 - 5)
post Dec 6 2017, 17:14:47
Post #2

Аннигилятор пивА
Group Icon
Group: V.I.P
Posts: 46,692
Releases: 14016
From: Koenigsberg - TILZIT
On Forums: 11 years 11 months
Thanks: 310863 time(s)
Russian Federation


MIRROR
Register


Thanks:
Вернуться к началу страницы
  Insert nick Quick quote
+Цитировать сообщение
post Dec 6 2017, 17:53:33
Post #3

Девять Литров
*********
Group: Металариец
Posts: 959
Releases: 0
On Forums: 7 years 1 week
Thanks: 397 time(s)
Unknown


mail.ru 404 error
Вернуться к началу страницы
  Insert nick Quick quote
+Цитировать сообщение
post Dec 6 2017, 18:41:13
Post #4

Шесть Литров
******
Group: Металариец
Posts: 551
Releases: 0
On Forums: 9 years 5 days
Thanks: 187 time(s)
Belarus


Вроде есть что-то в музыке коллектива, но в целом, не то.
Вернуться к началу страницы
  Insert nick Quick quote
+Цитировать сообщение
post Dec 6 2017, 21:08:29
Post #5

Девять Литров
*********
Group: Металариец
Posts: 989
Releases: 0
From: Dnipro
On Forums: 9 years 10 months
Thanks: 251 time(s)
Ukraine


ЦИТАТА(DeathCoveR @ Dec 6 2017, 19:41:13) *
Вроде есть что-то в музыке коллектива, но в целом, не то.

Де нет, нормальный альбом, предыдущий миник правда получше вроде как был.
Вернуться к началу страницы
  Insert nick Quick quote
+Цитировать сообщение
post Dec 23 2017, 18:05:14
Post #6

赑屃
**
Group: Завсегдатай
Posts: 199
Releases: 5
From: Луганск
On Forums: 1 year 1 month
Thanks: 95 time(s)
Russian Federation


Первая песня прям мёдом и миррой источалась, все эти печальные песнопения, женская подпевка, акустические переборы.. А на второй взыграли амонамартами.. Потом опомнились и начали разбавлять, но как-то не то выходит.. 04. Unveiled ничего так, на медлячок больше похожа. Была. После половины испортили её дэзовым ускорением, снова опомнились и стали продолжать тему медлячка.. К чему, зачем - хрен его маму знает, просто запоганилили песню.. 05. Sojourn, Pt. II приятненькая, продолжение первой темы.. Ну и всё.. По итогу - альбом нисколько не дум. Мелодик метал и немного разбавляющей его готики. Сделать сингл из 1-ой и 5-ой песен, а остальное за борт и забыть, как страшный сон.

Ладно, шут с ним, 4-ую тоже оставляем..
Вернуться к началу страницы
  Insert nick Quick quote
+Цитировать сообщение

ОтветитьСоздать новую тему
1 User(s) are reading this topic (1 Guests and 0 Anonymous Users)
0 Members:

 



- Lo-Fi Version Support form
Copyrights and abuse reports form
Time is now: 22nd May 2018 - 20:05:33