Welcome Guest ( Log In | Register )

> Somnent - Sojourn (2017), Doom/Death Metal
post Dec 6 2017, 16:54:38
Post #1

Аннигилятор пивА
Group Icon
Group: V.I.P
Posts: 50,413
Releases: 15653
From: Koenigsberg - TILZIT
On Forums: 12 years 5 months
Thanks: 340125 time(s)
Russian Federation


(IMG:https://metalarea.org/images/audiocovers/2017_Dec/acov_tid298895_thumb.jpg)

*Artist: Somnent
*Album: Sojourn
*Year: 2017
*Genre: Doom/Death Metal
*Country: United States (IMG:https://metalarea.org/forum/style_images/flags/United%20States.png)
*Format: mp3@CBR320kbps
*Size: 101MB

Tracklist:
1. Sojourn
2. Deceit
3. The Furtive Longing
4. Unveiled
5. Sojourn Part II
6. A Bitter Ending
7. Closure
******************************
Total playing time: 47:55




Extended info


Technical info
(IMG:https://metalarea.org/images/spectrogram/2017_Dec/cde1dab2b48937d0cba7a33938225fa7.png)
Input File: 02. Deceit.mp3
Channels : 2
Sample Rate : 44100
Precision : 16-bit
Duration : 00:06:44.86 = 17854326 samples = 30364.5 CDDA sectors
File Size : 16.2M
Bit Rate : 320k
Sample Encoding: MPEG audio (layer I, II or III)
Comments :
Title=Deceit
Artist=Somnent
Album=Sojourn
Tracknumber=2
Year=2017



Register


Go to the top of the page
  Insert nick Quick quote
+Quote Post
 
Start new topic
Replies (1 - 5)
post Dec 6 2017, 17:14:47
Post #2

Аннигилятор пивА
Group Icon
Group: V.I.P
Posts: 50,413
Releases: 15653
From: Koenigsberg - TILZIT
On Forums: 12 years 5 months
Thanks: 340125 time(s)
Russian Federation


MIRROR
Register


Thanks:
Go to the top of the page
  Insert nick Quick quote
+Quote Post
post Dec 6 2017, 17:53:33
Post #3

Маньяк
**********
Group: Металариец
Posts: 1,010
Releases: 0
On Forums: 7 years 6 months
Thanks: 424 time(s)
Unknown


mail.ru 404 error
Go to the top of the page
  Insert nick Quick quote
+Quote Post
post Dec 6 2017, 18:41:13
Post #4

Шесть Литров
******
Group: Металариец
Posts: 551
Releases: 0
On Forums: 9 years 6 months
Thanks: 187 time(s)
Belarus


Вроде есть что-то в музыке коллектива, но в целом, не то.
Go to the top of the page
  Insert nick Quick quote
+Quote Post
post Dec 6 2017, 21:08:29
Post #5

Мегаманьяк
***********
Group: Металариец
Posts: 1,635
Releases: 0
From: Dnipro
On Forums: 10 years 4 months
Thanks: 428 time(s)
Ukraine


ЦИТАТА(DeathCoveR @ Dec 6 2017, 19:41:13) *
Вроде есть что-то в музыке коллектива, но в целом, не то.

Де нет, нормальный альбом, предыдущий миник правда получше вроде как был.
Go to the top of the page
  Insert nick Quick quote
+Quote Post
post Dec 23 2017, 18:05:14
Post #6

赑屃
***
Group: Завсегдатай
Posts: 211
Releases: 5
From: Луганск
On Forums: 1 year 7 months
Thanks: 101 time(s)
Russian Federation


Первая песня прям мёдом и миррой источалась, все эти печальные песнопения, женская подпевка, акустические переборы.. А на второй взыграли амонамартами.. Потом опомнились и начали разбавлять, но как-то не то выходит.. 04. Unveiled ничего так, на медлячок больше похожа. Была. После половины испортили её дэзовым ускорением, снова опомнились и стали продолжать тему медлячка.. К чему, зачем - хрен его маму знает, просто запоганилили песню.. 05. Sojourn, Pt. II приятненькая, продолжение первой темы.. Ну и всё.. По итогу - альбом нисколько не дум. Мелодик метал и немного разбавляющей его готики. Сделать сингл из 1-ой и 5-ой песен, а остальное за борт и забыть, как страшный сон.

Ладно, шут с ним, 4-ую тоже оставляем..
Go to the top of the page
  Insert nick Quick quote
+Quote Post

Reply to this topicStart new topic
1 User(s) are reading this topic (1 Guests and 0 Anonymous Users)
0 Members:

 



- Lo-Fi Version Support form
Copyrights and abuse reports form
Time is now: 19th November 2018 - 19:12:26