Welcome Guest ( Log In | Register )

 
ОтветитьСоздать новую тему
> Celtibeerian - Deiwos (2017), Folk Metal
post Dec 6 2017, 17:13:35
Post #1

Аннигилятор пивА
Group Icon
Group: V.I.P
Posts: 45,770
Releases: 13663
From: Koenigsberg - TILZIT
On Forums: 11 years 8 months
Thanks: 302380 time(s)
Russian Federation


(IMG:https://metalarea.org/images/audiocovers/2017_Dec/acov_tid298898_thumb.jpg)

*Artist: Celtibeerian
*Album: Deiwos
*Year: 2017
*Genre: Folk Metal
*Country: Spain (IMG:https://metalarea.org/forum/style_images/flags/Spain.png)
*Format: mp3@CBR320kbps
*Size: 111MB

Tracklist:
01. From Deep Waters (Intro) 02:16
02. Deiwos 03:57
03. Devotio 03:31
04. The Wolf I Am 03:56
05. The Shadow Of The Lynx 02:51
06. Fear My Beard 03:37
07. The Reborn 03:35
08. The Harvest Song 03:49
09. Navigium Isidis 01:12
10. Puellae Gaditanae 03:38
11. Life Goes On 03:57
12. Txoria Txori 02:51
13. Looking For Beer 03:15
14. Gallaecia II 03:24
15. The Spirit Of Our Inner Nature (Outro) 02:00
******************************
Total playing time: 47:49



Extended info
Gus - Bass, Vocals (2011-present) (Mala Fortuna, ex-Incission, ex-Bleach, ex-Dead District)
Vity - Drums, Percussion (2011-present) (ex-Byleth, ex-Kondena, ex-Incission)
Vasco - Guitars (2011-2015, 2017-present) (Mala Fortuna, ex-Bleach)
Patri - Violin (2011-present)
Dagda - Bagpipes, Viola, Whistles, Bouzouki, Arrangements, Vocals (backing) (2013-present) (ex-Mörrighan)



Technical info
(IMG:https://metalarea.org/images/spectrogram/2017_Dec/c290ca1cfba9bec1ee0308419f6bc977.png)
Input File: 2 Deiwos.mp3
Channels : 2
Sample Rate : 44100
Precision : 16-bit
Duration : 00:03:57.87 = 10490067 samples = 17840.2 CDDA sectors
File Size : 9.62M
Bit Rate : 323k
Sample Encoding: MPEG audio (layer I, II or III)
Comments :
Title=Deiwos
Artist=Celtibeerian
Album=Deiwos
Tracknumber=2/15
Year=2017
Genre=9
Discnumber=1/1



Register

Register


Вернуться к началу страницы
  Insert nick Quick quote
+Цитировать сообщение

ОтветитьСоздать новую тему
1 User(s) are reading this topic (1 Guests and 0 Anonymous Users)
0 Members:

 



- Lo-Fi Version Support form
Copyrights and abuse reports form
Time is now: 22nd February 2018 - 23:20:56