Welcome Guest ( Log In | Register )

> Status Minor - Three Faces Of Antoine (2017), Progressive Metal
post Dec 6 2017, 17:22:35
Post #1

Аннигилятор пивА
Group Icon
Group: V.I.P
Posts: 48,086
Releases: 14589
From: Koenigsberg - TILZIT
On Forums: 12 years 2 months
Thanks: 321139 time(s)
Russian Federation


(IMG:https://metalarea.org/images/audiocovers/2017_Dec/acov_tid298899_thumb.jpg)

*Artist: Status Minor
*Album: Three Faces Of Antoine
*Year: 2017
*Genre: Progressive Metal
*Country: Finland (IMG:https://metalarea.org/forum/style_images/flags/Finland.png)
*Format: mp3@CBR320kbps
*Size: 128MB

Tracklist:
01. Helen
02. Our Common Curse
03. Turn Back Time
04. The Tunnel
05. Free Me
06. Hard to Find
07. Max and Pattie
08. Feel My Hunger
09. Slenderman
10. Me
******************************
Total playing time: 55:10



Extended info
Eero Pakkanen - Bass (ex-Essence of Sorrow)
Rolf Pilve - Drums (Essence of Sorrow, Hypothesis, Megiddon, Random Eyes, Reversion, Solution .45, Stratovarius, Samuli Federley (live), Wintersun (live), Division of the Spoils, ex-Beyond the Dream, ex-Full Scale Conflict, Harri Kauppinen, The Magnificent, ex-Amoth, ex-Code for Silence, ex-Dreamtale, ex-Miseration, ex-Sightless)
Sami Saarinen - Guitars (King'o'War, ex-Tomorrow's Outlook, ex-Dimension, ex-Sam'O'waR)
Jukka Karinen - Keyboards (Kenziner, Thunderstone, The Magnificent)
Markku Kuikka - Vocals (Agonizer, Book of Reflections, Kenziner, Volymian, Six Silver Suns, ex-Grönholm, ex-Thaurorod, ex-TorneD)


Technical info
(IMG:https://metalarea.org/images/spectrogram/2017_Dec/2b459fbda6fe7b3727a7c9b6b9796f03.png)
Input File: 02 - Status Minor - Our Common Curse.mp3
Channels : 2
Sample Rate : 44100
Precision : 16-bit
Duration : 00:05:09.23 = 13636823 samples = 23191.9 CDDA sectors
File Size : 12.5M
Bit Rate : 324k
Sample Encoding: MPEG audio (layer I, II or III)
Comments :
Title=Our Common Curse
Artist=Status Minor
Album=Three Faces of Antoine
Tracknumber=2/10
Year=2017



Register


Go to the top of the page
  Insert nick Quick quote
+Quote Post
 
Start new topic
Replies (1 - 5)
post Dec 6 2017, 19:21:40
Post #2

Аннигилятор пивА
Group Icon
Group: V.I.P
Posts: 48,086
Releases: 14589
From: Koenigsberg - TILZIT
On Forums: 12 years 2 months
Thanks: 321139 time(s)
Russian Federation


MIRROR
Register


Go to the top of the page
  Insert nick Quick quote
+Quote Post
post Dec 6 2017, 22:51:39
Post #3

Тридцать лет на борту "Тяжёлого" крейсера
***********
Group: Металариец
Posts: 1,771
Releases: 0
From: Питер
On Forums: 11 years 2 months
Thanks: 399 time(s)
Russian Federation


Музыку нашёл в двух треках, остальное вода, которую может за неделю разлить любой гитарист, нажав иконку FL Studio на рабочем столе
Go to the top of the page
  Insert nick Quick quote
+Quote Post
post Dec 7 2017, 12:48:26
Post #4

hearer & reader
**************
Group: Металариец
Posts: 6,678
Releases: 84
From: Moscow
On Forums: 10 years 11 months
Thanks: 6542 time(s)
Russian Federation


Да всё очень хорошо, только вот рассказчик паршивый задолбал.
Go to the top of the page
  Insert nick Quick quote
+Quote Post
post Dec 7 2017, 14:20:18
Post #5

21st Century Schizoid Man
**************
Group: Металариец
Posts: 5,192
Releases: 67
From: Moscow
On Forums: 10 years 3 months
Thanks: 4091 time(s)
Russian Federation


Очень неплохо. Рассказчика проматываем.
Go to the top of the page
  Insert nick Quick quote
+Quote Post
post Dec 9 2017, 19:48:56
Post #6

Мегаманьяк
***********
Group: Металариец
Posts: 1,750
Releases: 0
From: Мытищи
On Forums: 10 years 5 months
Thanks: 978 time(s)
Russian Federation



Не знал этой группы, оказывается два альбома с большими перерывами уже было.
Фины знают толк в подаче даже не самых новых идей, и здесь это отчетливо видно.
Очень приятный альбом.
Go to the top of the page
  Insert nick Quick quote
+Quote Post

Reply to this topicStart new topic
1 User(s) are reading this topic (1 Guests and 0 Anonymous Users)
0 Members:

 



- Lo-Fi Version Support form
Copyrights and abuse reports form
Time is now: 19th August 2018 - 08:57:37