Welcome Guest ( Log In | Register )

> Hereafter - No Safe Moment [demo] (1998), Gothic Metal (D4)
post Dec 6 2017, 18:53:48
Post #1

Шесть Литров
******
Group: Металариец
Posts: 534
Releases: 56
On Forums: 9 years 5 months
Thanks: 1191 time(s)
Portugal


(IMG:http://metalarea.org/images/audiocovers/2017_Dec/acov_tid298901_thumb.jpg)

*Artist: Hereafter
*Album: No Safe Moment [demo]
*Year: 1998
*Genre: Gothic Metal
*Country: Germany (IMG:http://metalarea.org/forum/style_images/flags/Germany.png)
*Format: mp3@CBR320kbps
*Size: 83MB

Tracklist:
1. Her Smile 04:07
2. This Could Be The End 05:48
3. Heartless Unknown 04:19
4. I'm Setting Sail 03:42
5. ?-! 02:48
6. Lost Inside Myself 04:36
7. We Won't... 05:18
8. I Can't Forget 05:57
9. Turn Away 01:43
******************************
Total playing time: 38:18

(IMG:http://metalarea.org/images/youtube.png)

Extended info
Tape-rip.


Technical info
(IMG:http://metalarea.org/images/spectrogram/2017_Dec/be1c8639b4cc6aefbfdc73705d2fcb2c.png)
Input File: Hereafter - 02 - This Could Be The End.mp3
Channels : 2
Sample Rate : 44100
Precision : 16-bit
Duration : 00:05:29.12 = 14514368 samples = 24684.3 CDDA sectors
File Size : 13.2M
Bit Rate : 321k
Sample Encoding: MPEG audio (layer I, II or III)
Comments :
Title=This Could Be The End
Artist=Hereafter
Album=No Safe Moment
Tracknumber=2
Year=1998
Genre=Gothic Metal



Register


Вернуться к началу страницы
  Insert nick Quick quote
+Цитировать сообщение
 
Создать новую тему
Replies (1 - 2)
post Dec 7 2017, 18:07:55
Post #2

Маньяк
**********
Group: Металариец
Posts: 1,448
Releases: 23
From: Spain
On Forums: 10 years 5 months
Thanks: 1094 time(s)
Spain


Very interesting. do you have their other demo "stillborn"??
Вернуться к началу страницы
  Insert nick Quick quote
+Цитировать сообщение
post Dec 7 2017, 21:44:56
Post #3

Шесть Литров
******
Group: Металариец
Posts: 534
Releases: 56
On Forums: 9 years 5 months
Thanks: 1191 time(s)
Portugal


Sorry, but I only have this demo tape and I am actually selling it.
Вернуться к началу страницы
  Insert nick Quick quote
+Цитировать сообщение

ОтветитьСоздать новую тему
1 User(s) are reading this topic (1 Guests and 0 Anonymous Users)
0 Members:

 



- Lo-Fi Version Support form
Copyrights and abuse reports form
Time is now: 24th February 2018 - 16:34:27