Welcome Guest ( Log In | Register )

> Aceptic Goitre - The Purging (2017), Brutal Death Metal (D4)
post Dec 6 2017, 19:32:55
Post #1

Правь статус, ####!111
**************
Group: Металариец
Posts: 13,032
Releases: 9252
From: Г.Харьков
On Forums: 6 years 1 week
Thanks: 150409 time(s)
Unknown


(IMG:http://metalarea.org/images/audiocovers/2017_Dec/acov_tid298902_thumb.jpg)

*Artist: Aceptic Goitre
*Album: The Purging
*Year: 2017
*Genre: Brutal Death Metal
*Country: Greece (IMG:http://metalarea.org/forum/style_images/flags/Greece.png)
*Format: mp3@CBR320kbps
*Size: 76MB

Tracklist:
1. Befouled in Expiation
2. The Chapel of Legions
3. The Purging
4. Ceremonial Aftermath
5. Deep Into Oblivion
6. Gillah
7. A Prologue to Molestation
8. Dark Revelations
9. The Possession of Eleanor Blythe
10. Deletion
******************************
Total playing time: 33:13




Extended info
Scene CD-Rip


Technical info
(IMG:http://metalarea.org/images/spectrogram/2017_Dec/e19e58656af4dee3a0945cc9b3584303.png)
Input File: 02-aceptic_goitre-the_chapel_of_legions.mp3
Channels : 2
Sample Rate : 44100
Precision : 16-bit
Duration : 00:03:31.00 = 9305100 samples = 15825 CDDA sectors
File Size : 8.44M
Bit Rate : 320k
Sample Encoding: MPEG audio (layer I, II or III)
Comments :
Title=The Chapel of Legions
Artist=Aceptic Goitre
Album=The Purging
Tracknumber=2
Year=2017
Genre=Death Metal



Register


Вернуться к началу страницы
  Insert nick Quick quote
+Цитировать сообщение
 
Создать новую тему
Replies (1 - 1)
post Dec 7 2017, 01:57:16
Post #2

Правь статус, ####!111
**************
Group: Металариец
Posts: 13,032
Releases: 9252
From: Г.Харьков
On Forums: 6 years 1 week
Thanks: 150409 time(s)
Unknown


Register
Вернуться к началу страницы
  Insert nick Quick quote
+Цитировать сообщение

ОтветитьСоздать новую тему
1 User(s) are reading this topic (1 Guests and 0 Anonymous Users)
0 Members:

 



- Lo-Fi Version Support form
Copyrights and abuse reports form
Time is now: 24th May 2018 - 22:44:50