Welcome Guest ( Log In | Register )

> Devilgroth - Ivan Grozny (2017), Raw Black Metal
post Dec 6 2017, 20:49:00
Post #1

Group: Подсевший
Posts: 29
Releases: 20
From: Russia
On Forums: 1 year 9 months
Thanks: 216 time(s)
Russian Federation


(IMG:https://metalarea.org/images/audiocovers/2017_Dec/acov_tid298904_thumb.jpg)

*Artist: Devilgroth
*Album: Ivan Grozny
*Year: 2017
*Genre: Raw Black Metal
*Country: Russian Federation (IMG:https://metalarea.org/forum/style_images/flags/Russian%20Federation.png)
*Format: mp3@CBR320kbps
*Size: 121MB

Tracklist:
1. Tsar
2. Dark Hallways of Kremlin
3. Messenger of God
4. Wolflife
5. Forgiveness... My Son
6. Cold and Hunger
7. Silence of the Sky
8. Smuta
******************************
Total playing time: 51:25



Technical info
(IMG:https://metalarea.org/images/spectrogram/2017_Dec/cc54d2c6ed27fc4ffa1f833673f76c55.png)
Input File: 01 Tsar.mp3
Channels : 2
Sample Rate : 44100
Precision : 16-bit
Duration : 00:05:30.09 = 14557013 samples = 24756.8 CDDA sectors
File Size : 13.4M
Bit Rate : 325k
Sample Encoding: MPEG audio (layer I, II or III)
Comments :
Title=Tsar
Artist=Devilgroth
Album=Ivan Grozny
Tracknumber=1
Year=2017
Genre=138



Register


Go to the top of the page
  Insert nick Quick quote
+Quote Post
 
Start new topic
Replies (1 - 3)
post Dec 7 2017, 03:56:52
Post #2

Семь Литров
*******
Group: Металариец
Posts: 764
Releases: 0
From: Новосибирск
On Forums: 9 years 2 months
Thanks: 202 time(s)
Russian Federation


Raw Black Metal? Вот ЭТО? Чё за (IMG:style_emoticons/default/22.gif) ?
Go to the top of the page
  Insert nick Quick quote
+Quote Post
post Dec 7 2017, 06:38:53
Post #3

Самый Тихий Час
**************
Group: Металариец
Posts: 5,614
Releases: 0
On Forums: 9 years 1 week
Thanks: 2450 time(s)
Unknown


Monarchist black metal
Wolflife, yo!


Thanks:
Go to the top of the page
  Insert nick Quick quote
+Quote Post
post Feb 2 2018, 05:57:33
Post #4

i listen to black metal
**************
Group: Металариец
Posts: 2,213
Releases: 128
From: Москва-Лианозово
On Forums: 11 years 10 months
Thanks: 2029 time(s)
Russian Federation


при беглом прослушивание не понятно....
а ведь Морена был шикарным альбомом)))
Go to the top of the page
  Insert nick Quick quote
+Quote Post

Reply to this topicStart new topic
1 User(s) are reading this topic (1 Guests and 0 Anonymous Users)
0 Members:

 



- Lo-Fi Version Support form
Copyrights and abuse reports form
Time is now: 20th November 2018 - 17:24:00