Welcome Guest ( Log In | Register )

> Anarhichas - The Deep Dark Abyss [demo] (2017), Black Metal
post Dec 6 2017, 22:31:42
Post #1

𝕻𝕬𝕹𝕬𝕮𝕰𝕬
******
Group: Металариец
Posts: 548
Releases: 307
On Forums: 6 years 2 months
Thanks: 4162 time(s)
Unknown


(IMG:http://metalarea.org/images/audiocovers/2017_Dec/acov_tid298905_thumb.jpg)

*Artist: Anarhichas
*Album: The Deep Dark Abyss [demo]
*Year: 2017
*Genre: Black Metal
*Country: Norway (IMG:http://metalarea.org/forum/style_images/flags/Norway.png)
*Format: mp3@CBR320kbps
*Size: 53MB

Tracklist:
1. Anarhichas 06:14
2. The Deep Dark Abyss 05:07
3. Cold Liquid Death 04:06
4. Ancient Beast 04:18
5. Gneisenau 03:24
******************************
Total playing time: 23:09



Technical info
(IMG:http://metalarea.org/images/spectrogram/2017_Dec/1fe383f556567d02dd7a9470b1c5d9fe.png)
Input File: 05 - Gneisenau.mp3
Channels : 2
Sample Rate : 44100
Precision : 16-bit
Duration : 00:03:24.48 = 9017656 samples = 15336.1 CDDA sectors
File Size : 8.27M
Bit Rate : 324k
Sample Encoding: MPEG audio (layer I, II or III)
Comments :
Title=Gneisenau
Artist=Anarhichas
Album=The Deep Dark Abyss
Tracknumber=5
Year=2017
Genre=Black Metal



Register


Go to the top of the page
  Insert nick Quick quote
+Quote Post
 
Start new topic
Replies (1 - 2)
post Dec 8 2017, 07:32:42
Post #2

Satan bless you!
**************
Group: Металариец
Posts: 3,206
Releases: 63
From: Москва
On Forums: 10 years 1 month
Thanks: 2756 time(s)
Russian Federation


Непонятно при чем тут перевернутые кресты на бк и тематика песен Fish, Oceans)
Go to the top of the page
  Insert nick Quick quote
+Quote Post
post Dec 11 2017, 04:57:16
Post #3

Семь Литров
*******
Group: Металариец
Posts: 723
Releases: 0
From: Новосибирск
On Forums: 8 years 11 months
Thanks: 192 time(s)
Russian Federation


ЦИТАТА(RUSP73 @ Dec 8 2017, 13:32:42) *
Непонятно при чем тут перевернутые кресты на бк и тематика песен Fish, Oceans)


Да, группа и правда смешная. Хотя по музыке так не скажешь.
Go to the top of the page
  Insert nick Quick quote
+Quote Post

Reply to this topicStart new topic
1 User(s) are reading this topic (1 Guests and 0 Anonymous Users)
0 Members:

 



- Lo-Fi Version Support form
Copyrights and abuse reports form
Time is now: 17th August 2018 - 00:14:31