Welcome Guest ( Log In | Register )

> Ad Baculum - Summe Potens & Callidus (2017), Black Metal (D5)
post Dec 7 2017, 04:22:40
Post #1

Четыре Литра
****
Group: Металариец
Posts: 300
Releases: 22
From: guatemala
On Forums: 7 years 7 months
Thanks: 562 time(s)
Guatemala


(IMG:http://metalarea.org/images/audiocovers/2017_Dec/acov_tid298907_thumb.jpg)

*Artist: Ad Baculum
*Album: Summe Potens & Callidus
*Year: 2017
*Genre: Black Metal
*Country: Brazil (IMG:http://metalarea.org/forum/style_images/flags/Brazil.png)
*Format: mp3@CBR256kbps
*Size: 73MB

Tracklist:
1. Ancient Imperial Reign 06:30
2. Babylonia in Blood 02:30
3. Divine Deception 03:38
4. Malevolent Intent God 03:59
5. Meditations 02:20
6. Misotheistic Faith 02:55
7. Under Control of Celestial Evil 03:51
8. We Salute the Dead Ones 05:09
9. WitchCraft 04:21
10. Neolithic Macabre Ceremony 04:34
******************************
Total playing time: 39:47

Technical info
(IMG:http://metalarea.org/images/spectrogram/2017_Dec/074b67b16dd6e406fa06dfd4cbb4add1.png)
Input File: Ad Baculum-Babylonia in Blood.mp3
Channels : 1
Sample Rate : 44100
Precision : 16-bit
Duration : 00:02:30.76 = 6648648 samples = 11307.2 CDDA sectors
File Size : 4.83M
Bit Rate : 256k
Sample Encoding: MPEG audio (layer I, II or III)
Comments :
Title=Babylonia in Blood
Artist=Ad Baculum
Album=Summe Potens & Callidus
Tracknumber=2



Register


Вернуться к началу страницы
  Insert nick Quick quote
+Цитировать сообщение
 
Создать новую тему
Replies (1 - 1)
post Dec 7 2017, 17:52:02
Post #2

Маньяк
**********
Group: Металариец
Posts: 1,469
Releases: 23
From: Spain
On Forums: 10 years 7 months
Thanks: 1108 time(s)
Spain


QUOTE
Вернуться к началу страницы
  Insert nick Quick quote
+Цитировать сообщение

ОтветитьСоздать новую тему
2 User(s) are reading this topic (2 Guests and 0 Anonymous Users)
0 Members:

 



- Lo-Fi Version Support form
Copyrights and abuse reports form
Time is now: 22nd April 2018 - 00:02:33