Welcome Guest ( Log In | Register )

 
ОтветитьСоздать новую тему
> Underest - Inceptum Pestis (2016), Melodic Death/Folk Metal
post Dec 7 2017, 07:49:46
Post #1

Правь статус, ####!111
**************
Group: Металариец
Posts: 12,648
Releases: 9062
From: Г.Харьков
On Forums: 5 years 11 months
Thanks: 146523 time(s)
Unknown


(IMG:http://metalarea.org/images/audiocovers/2017_Dec/acov_tid298908_thumb.jpg)

*Artist: Underest
*Album: Inceptum Pestis
*Year: 2016
*Genre: Melodic Death/Folk Metal
*Country: Germany (IMG:http://metalarea.org/forum/style_images/flags/Germany.png)
*Format: mp3@CBR320kbps
*Size: 108MB

Tracklist:
1. Geisterschiff 06:45
2. Pest 04:06
3. Miasma 07:51
4. Medicus 05:37
5. Schmied 04:55
6. Hexenweib 05:31
7. Hopfentrank 04:46
8. Eissturm 07:05
******************************
Total playing time: 46:36




Extended info
Phil - Vocals
Säsch - Lead Guitar
Yusuke - Rhythm Guitars
André - Drums, Percussion
Jen - Keyboard


Technical info
(IMG:http://metalarea.org/images/spectrogram/2017_Dec/294d753fe55c815f630ac4878231cfc5.png)
Input File: 2 - Pest.mp3
Channels : 2
Sample Rate : 44100
Precision : 16-bit
Duration : 00:04:06.55 = 10872899 samples = 18491.3 CDDA sectors
File Size : 10.0M
Bit Rate : 325k
Sample Encoding: MPEG audio (layer I, II or III)
Comments :
Title=Pest
Artist=Underest
Album=Inceptum Pestis
Tracknumber=2/8
Year=2016



Register


Вернуться к началу страницы
  Insert nick Quick quote
+Цитировать сообщение

ОтветитьСоздать новую тему
2 User(s) are reading this topic (2 Guests and 0 Anonymous Users)
0 Members:

 



- Lo-Fi Version Support form
Copyrights and abuse reports form
Time is now: 22nd April 2018 - 00:04:11