Welcome Guest ( Log In | Register )

> Organized Chaos - Divulgence (2017), Progressive Metal
post Dec 7 2017, 08:03:24
Post #1

Правь статус, ####!111
**************
Group: Металариец
Posts: 13,932
Releases: 9724
From: Г.Харьков
On Forums: 6 years 3 months
Thanks: 159455 time(s)
Unknown


(IMG:http://metalarea.org/images/audiocovers/2017_Dec/acov_tid298910_thumb.jpg)

*Artist: Organized Chaos
*Album: Divulgence
*Year: 2017
*Genre: Progressive Metal
*Country: Serbia (IMG:http://metalarea.org/forum/style_images/flags/Serbia.png)
*Format: mp3@CBR320kbps
*Size: 87MB

Tracklist:
1. Apex 03:04
2. Cinnamon 05:42
3. Ache (feat. Nick Johnston) 05:22
4. Hide and Seek 06:02
5. Broken Divine (feat. Richard Henshall) 07:22
6. Awake! 01:47
7. The Mask (feat. Branislava Podrumac) 08:02
******************************
Total playing time: 37:21




Extended info
VLADIMIR LALIĆ | vocals & guitars
MILAN YEQY JEJINA | drums
BOJAN KVOČKA | bass
BENJAMIN LECHUGA | guitars
DAVID MAXIM MICIĆ | keyboards



Technical info
(IMG:http://metalarea.org/images/spectrogram/2017_Dec/b1b6815d3ce58f3e9c4c5d5c27e1b340.png)
Input File: 2 - Cinnamon.mp3
Channels : 2
Sample Rate : 44100
Precision : 16-bit
Duration : 00:05:42.61 = 15109145 samples = 25695.8 CDDA sectors
File Size : 13.9M
Bit Rate : 324k
Sample Encoding: MPEG audio (layer I, II or III)
Comments :
Title=Cinnamon
Artist=Organized Chaos
Album=Divulgence
Tracknumber=2/7
Year=2017



Register


Go to the top of the page
  Insert nick Quick quote
+Quote Post
 
Start new topic
Replies (1 - 4)
post Dec 7 2017, 19:28:40
Post #2

21st Century Schizoid Man
**************
Group: Металариец
Posts: 5,192
Releases: 67
From: Moscow
On Forums: 10 years 3 months
Thanks: 4091 time(s)
Russian Federation


ЦИТАТА
feat. Richard Henshall

Решающий момент.
Go to the top of the page
  Insert nick Quick quote
+Quote Post
post Dec 7 2017, 19:35:58
Post #3

Аннигилятор пивА
Group Icon
Group: V.I.P
Posts: 48,041
Releases: 14561
From: Koenigsberg - TILZIT
On Forums: 12 years 2 months
Thanks: 320658 time(s)
Russian Federation


ЦИТАТА(Yarri @ Dec 7 2017, 18:28:40) *
Решающий момент.

там одна соляга, а вообще митала на альбоме процентов 20 и то приджентованный модерн, в основном некий модерн экспериментал прог рок


Thanks:
(2) AHBAnep, Yarri,
Go to the top of the page
  Insert nick Quick quote
+Quote Post
post Dec 7 2017, 19:43:15
Post #4

21st Century Schizoid Man
**************
Group: Металариец
Posts: 5,192
Releases: 67
From: Moscow
On Forums: 10 years 3 months
Thanks: 4091 time(s)
Russian Federation


aesteticvice,
Anyway.
Go to the top of the page
  Insert nick Quick quote
+Quote Post
post Dec 10 2017, 23:49:54
Post #5

21st Century Schizoid Man
**************
Group: Металариец
Posts: 5,192
Releases: 67
From: Moscow
On Forums: 10 years 3 months
Thanks: 4091 time(s)
Russian Federation


Да, экспериментал с закосом под Таунсенда, но не так экстремально. Не зацепило.
Go to the top of the page
  Insert nick Quick quote
+Quote Post

Reply to this topicStart new topic
1 User(s) are reading this topic (1 Guests and 0 Anonymous Users)
0 Members:

 



- Lo-Fi Version Support form
Copyrights and abuse reports form
Time is now: 17th August 2018 - 00:14:46