Welcome Guest ( Log In | Register )

> Blitzz - Do The Blitzz [ep] (1990), Power/Speed/Thrash Metal
post Dec 7 2017, 08:53:16
Post #1

Join my religion, or die
**************
Group: Металариец
Posts: 9,444
Releases: 1129
From: Питера
On Forums: 8 years 6 months
Thanks: 15369 time(s)
Russian Federation


(IMG:https://metalarea.org/images/audiocovers/2017_Dec/acov_tid298912_thumb.jpg)

*Artist: Blitzz
*Album: Do The Blitzz [ep]
*Year: 1990
*Genre: Power/Speed/Thrash Metal
*Country: Germany (IMG:https://metalarea.org/forum/style_images/flags/Germany.png)
*Format: mp3@CBR320kbps
*Size: 60MB

Tracklist:
01. Money Rules the World 03:29
02. Greed Drives Me Wild 03:34
03. Do the Blitz 04:15
04. Demon of the Night 03:48
05. Run for Your Life 03:24
06. Tarantella 04:30
******************************
Total playing time: 23:00

Preview 1

Extended info
ЦД Рип с коврами.
Шикарный тевтонский метал с женским вокалом.



Technical info
(IMG:https://metalarea.org/images/spectrogram/2017_Dec/d090e7b493f194104d9ee7b8adcf1348.png)
Input File: 06 Tarantella.mp3
Channels : 2
Sample Rate : 44100
Precision : 16-bit
Duration : 00:04:29.19 = 11871455 samples = 20189.5 CDDA sectors
File Size : 10.9M
Bit Rate : 325k
Sample Encoding: MPEG audio (layer I, II or III)
Comments :
Title=Tarantella
Artist=Blitzz
Album=1990 Do The Blitz
Tracknumber=06/06
Year=1990
Genre=Power/Speed Metal



Register


Вернуться к началу страницы
  Insert nick Quick quote
+Цитировать сообщение
 
Создать новую тему
Replies (1 - 2)
post Dec 7 2017, 10:23:49
Post #2

Join my religion, or die
**************
Group: Металариец
Posts: 9,444
Releases: 1129
From: Питера
On Forums: 8 years 6 months
Thanks: 15369 time(s)
Russian Federation


На МА уже есть полноформат с таким же названием и обложкой за 1989 год.
История тут такова:
Образовавшись в 1988 году, группа записала материал для своего первого полноформатного альбома,
к которому проявил интерес не кто-нибудь, а сам Steamhammer.
Но альбом, по неизвестным причинам, так и не был издан. У него не было не то что обложки, а даже и названия.
Однако в 1990 году Steamhammer, изрядно урезав альбом и превратив его в ЕР, таки выпускает его в свет.
В 1992, группа распадается. Музыканты разбредаются кто куда. Tommy Feiler (гитара) до сих пор играет в метал-готик банде Xylonite Ivy,
Flatzz I. Wahnoff (басс) создал собственную группу Vicki Vomit и играет электронную попсу с сатирическими текстами, записав уже более десятка альбомов.
Kerstin Radtke (вокал) и Fips Ascon (барабаны) ушли из музыки...
В двухтысячных компания German Democratic Recordings выкупает у Steamhammer права на Blitzz
и в 2013 году выпускает компиляцию их творчества в виде CD "Tarantella (1987-1989)" по названию их самой известной песни.
В эту компиляшку, первыми 12ю трэками входит многострадальный, не изданный альбом.
Далее, какой то умелец, вырезает из этой компиляции первые 12 трэков, прикручивает к ним обложку от ЕРишки и,
чтоб не парится с ней, оставляет и название. Так и появился полноформат 1989 года Do The Blitzz, которого на самом деле и нет...


Yandex можно взять здесь:

Register


Компиляция Tarantella (1987-1989)


Thanks:
Вернуться к началу страницы
  Insert nick Quick quote
+Цитировать сообщение
post Jan 2 2018, 09:49:42
Post #3

South Of Heaven /адепт ВУДУ
**************
Group: Металариец
Posts: 12,135
Releases: 7
From: Санкт-Петербург
On Forums: 8 years 2 weeks
Thanks: 4307 time(s)
Russian Federation


Обожаю хорошие вумен вокалы в тяжмете, да и не только в тяжмете (IMG:style_emoticons/default/20.gif)
Вернуться к началу страницы
  Insert nick Quick quote
+Цитировать сообщение

ОтветитьСоздать новую тему
2 User(s) are reading this topic (2 Guests and 0 Anonymous Users)
0 Members:

 



- Lo-Fi Version Support form
Copyrights and abuse reports form
Time is now: 21st April 2018 - 23:59:44