Welcome Guest ( Log In | Register )

> Bitterdusk - Árbol Cósmico (2017), Epic/Doom Metal (D4)
post Dec 7 2017, 08:59:54
Post #1

Аннигилятор пивА
Group Icon
Group: V.I.P
Posts: 50,438
Releases: 15658
From: Koenigsberg - TILZIT
On Forums: 12 years 5 months
Thanks: 340323 time(s)
Russian Federation


(IMG:https://metalarea.org/images/audiocovers/2017_Dec/acov_tid298914_thumb.jpg)

*Artist: Bitterdusk
*Album: Árbol Cósmico
*Year: 2017
*Genre: Epic/Doom Metal
*Country: Chile (IMG:https://metalarea.org/forum/style_images/flags/Chile.png)
*Format: mp3@CBR320kbps
*Size: 91MB

Tracklist:
1. El Retorno 07:56
2. Arbol Cósmico 09:09
3. Transmutación 05:58
4. Destello 05:40
5. Amanecer de la Galaxia 04:40
6. Lemuria 05:36
******************************
Total playing time: 38:59




Extended info
Leonardo Alvarado: Bass/Vocals,
Fabián Alvarado: Guitar,
Carlos Salinas: Guitar,
Kurt Heyer: Drums


Technical info
(IMG:https://metalarea.org/images/spectrogram/2017_Dec/43ad4249fbf87651bc61d645ad6dd4a8.png)
Input File: Bitterdusk - Árbol Cósmico - 03 Transmutación.mp3
Channels : 2
Sample Rate : 44100
Precision : 16-bit
Duration : 00:05:59.01 = 15832253 samples = 26925.6 CDDA sectors
File Size : 14.6M
Bit Rate : 325k
Sample Encoding: MPEG audio (layer I, II or III)
Comments :
Title=TransmutaciГіn
Artist=Bitterdusk
Album=ГЃrbol CГіsmico
Tracknumber=3
Year=2017



Register


Go to the top of the page
  Insert nick Quick quote
+Quote Post
 
Start new topic
Replies (1 - 3)
post Dec 7 2017, 10:53:05
Post #2

Аннигилятор пивА
Group Icon
Group: V.I.P
Posts: 50,438
Releases: 15658
From: Koenigsberg - TILZIT
On Forums: 12 years 5 months
Thanks: 340323 time(s)
Russian Federation


(IMG:style_emoticons/default/fear.gif) билайн всех купил?

mirror
Register
Go to the top of the page
  Insert nick Quick quote
+Quote Post
post Dec 7 2017, 20:09:07
Post #3

Ёлд ХеллоВяйне
Group Icon
Group: V.I.P
Posts: 26,278
Releases: 130
From: Питер
On Forums: 12 years 3 weeks
Thanks: 14530 time(s)
Russian Federation


QUOTE(aesteticvice @ 7th December 2017 - 10:59:54) *
*Genre: Epic/Doom Metal


Жаль, что в последнее время вместо настоящего сочного эпика типа первого Эреб Альтор или Solstice нам подсовывают такую серость.


Thanks:
Go to the top of the page
  Insert nick Quick quote
+Quote Post
post Dec 8 2017, 07:07:56
Post #4

hearer & reader
**************
Group: Металариец
Posts: 7,141
Releases: 92
From: Moscow
On Forums: 11 years 2 months
Thanks: 6797 time(s)
Russian Federation


ЦИТАТА
Tags
hard rock rock doom doom metal shoegaze space rock Santiago

Какой там эпик?
Go to the top of the page
  Insert nick Quick quote
+Quote Post

Reply to this topicStart new topic
1 User(s) are reading this topic (1 Guests and 0 Anonymous Users)
0 Members:

 



- Lo-Fi Version Support form
Copyrights and abuse reports form
Time is now: 20th November 2018 - 16:17:54