Welcome Guest ( Log In | Register )

> Blitzz - Tarantella (1987-1989) [best of/compilation] (2013), Power/Speed/Thrash Metal
post Dec 7 2017, 09:32:03
Post #1

Join my religion, or die
**************
Group: Металариец
Posts: 9,444
Releases: 1129
From: Питера
On Forums: 8 years 6 months
Thanks: 15369 time(s)
Russian Federation


(IMG:https://metalarea.org/images/audiocovers/2017_Dec/acov_tid298915_thumb.jpg)

*Artist: Blitzz
*Album: Tarantella (1987-1989) [best of/compilation]
*Year: 2013
*Genre: Power/Speed/Thrash Metal
*Country: Germany (IMG:https://metalarea.org/forum/style_images/flags/Germany.png)
*Format: mp3@CBR320kbps
*Size: 181MB

Tracklist:
01. Money Rules the World 03:29
02. Lucifer 03:55
03. Greed 03:41
04. Tarantella 04:34
05. Black Is Black 01:58
06. Easy Booty 02:50
07. Voices 04:15
08. Do the Blitz 04:21
09. EL 34 03:52 instrumental
10. Demon of the Night 03:52
11. School's Out 03:40
12. Run for Your Life 03:26
13. Medusa (Live 1988) 06:05
14. Es treibt mich die Gier (1987) 03:31
15. Tarantella (German version 1987) 05:15
16. EL 34 (1987) 03:33 instrumental
17. Leichte Beute (Live 1987) 02:48
18. Die Titanic sinkt (Demo 1987) 04:16
19. I'm Alive (Live 1988) 05:39
******************************
Total playing time: 1:15:00

Preview 1

Extended info
ЦД Рип с коврами.
Шикарный тевтонский метал с женским вокалом.
Диск включает в себя практически всю дискографию группы
1-12 - так никогда и не вышедший полноформат



Technical info
(IMG:https://metalarea.org/images/spectrogram/2017_Dec/0f3aea3c711abdd7dd7a6a528a33c045.png)
Input File: 13 Es treibt mich die Gier (1987).mp3
Channels : 2
Sample Rate : 44100
Precision : 16-bit
Duration : 00:03:31.25 = 9316169 samples = 15843.8 CDDA sectors
File Size : 8.45M
Bit Rate : 320k
Sample Encoding: MPEG audio (layer I, II or III)



Register


Вернуться к началу страницы
  Insert nick Quick quote
+Цитировать сообщение
 
Создать новую тему
Replies (1 - 2)
post Dec 7 2017, 21:00:34
Post #2

Join my religion, or die
**************
Group: Металариец
Posts: 9,444
Releases: 1129
From: Питера
On Forums: 8 years 6 months
Thanks: 15369 time(s)
Russian Federation


Интересную информацию об этом альбоме и о банде можно почитать здесь:
Blitzz 1990 Do The Blitzz
Вернуться к началу страницы
  Insert nick Quick quote
+Цитировать сообщение
post Dec 8 2017, 08:37:11
Post #3

hearer & reader
**************
Group: Металариец
Posts: 6,156
Releases: 81
From: Moscow
On Forums: 10 years 7 months
Thanks: 6332 time(s)
Russian Federation


Теги придумали дураки.
#5 и 6 - одним треком.
Вернуться к началу страницы
  Insert nick Quick quote
+Цитировать сообщение

ОтветитьСоздать новую тему
2 User(s) are reading this topic (2 Guests and 0 Anonymous Users)
0 Members:

 



- Lo-Fi Version Support form
Copyrights and abuse reports form
Time is now: 21st April 2018 - 23:54:50