Welcome Guest ( Log In | Register )

> Feared - Svart (2017), Death/Thrash Metal (D7)
post Dec 7 2017, 11:27:42
Post #1

Аннигилятор пивА
Group Icon
Group: V.I.P
Posts: 46,651
Releases: 14002
From: Koenigsberg - TILZIT
On Forums: 11 years 10 months
Thanks: 310007 time(s)
Russian Federation


(IMG:https://metalarea.org/images/audiocovers/2017_Dec/acov_tid298917_thumb.jpg)

*Artist: Feared
*Album: Svart
*Year: 2017
*Genre: Death/Thrash Metal
*Country: Sweden (IMG:https://metalarea.org/forum/style_images/flags/Sweden.png)
*Format: mp3@CBR320kbps
*Size: 60MB

Tracklist:
1. När allt blir svart
2. King of the Dead
3. Hate Mantra
4. My Next
5. In i dimman
6. Your Black Is My White
7. Engines of Death
8. The Mare
9. Blodspår
******************************
Total playing time: 24:56



Extended info
Guitars - Ola Englund (THE HAUNTED, ex SIX FEET UNDER)
Bass - Jocke Skog (ex CLAWFINGER, AECKEL)
Drums - Kevin Talley (SUFFOCATION, ex DYING FEETUS ex BLACK DAHLIA MURDER)
Vocals - Mario Santos Ramos (DEMONOID)


Technical info
(IMG:https://metalarea.org/images/spectrogram/2017_Dec/5a7f0f15f64afc967eb55b8b40f23b1a.png)
Input File: 2 - Feared - King of the Dead.mp3
Channels : 2
Sample Rate : 44100
Precision : 16-bit
Duration : 00:03:42.38 = 9807046 samples = 16678.6 CDDA sectors
File Size : 8.99M
Bit Rate : 324k
Sample Encoding: MPEG audio (layer I, II or III)
Comments :
Title=King of the Dead
Artist=Feared
Album=Svart
Tracknumber=2/9
Year=2017



Register


Вернуться к началу страницы
  Insert nick Quick quote
+Цитировать сообщение
 
Создать новую тему
Replies (1 - 4)
post Dec 7 2017, 12:11:05
Post #2

Аннигилятор пивА
Group Icon
Group: V.I.P
Posts: 46,651
Releases: 14002
From: Koenigsberg - TILZIT
On Forums: 11 years 10 months
Thanks: 310007 time(s)
Russian Federation


MIRROR
Register




Вернуться к началу страницы
  Insert nick Quick quote
+Цитировать сообщение
post Dec 7 2017, 12:26:23
Post #3

Два Литра
**
Group: Завсегдатай
Posts: 134
Releases: 0
From: Ташкент
On Forums: 10 years 2 months
Thanks: 27 time(s)
Uzbekistan


Ну и как обычно все пройдут мимо этой крутой банды.
Вернуться к началу страницы
  Insert nick Quick quote
+Цитировать сообщение
post Dec 7 2017, 13:20:55
Post #4

Group: Дух
Posts: 7
Releases: 0
On Forums: 11 months 2 weeks
Thanks: 1 time(s)
Belarus


каждый год по альбому, не успеваешь соскучиться.
Вернуться к началу страницы
  Insert nick Quick quote
+Цитировать сообщение
post Dec 12 2017, 09:30:00
Post #5

Два Литра
**
Group: Завсегдатай
Posts: 102
Releases: 3
From: С-Пб
On Forums: 9 years 9 months
Thanks: 22 time(s)
Russian Federation


есть еще инструментальная версия,может кто зальет (спасибо)
Вернуться к началу страницы
  Insert nick Quick quote
+Цитировать сообщение

ОтветитьСоздать новую тему
2 User(s) are reading this topic (2 Guests and 0 Anonymous Users)
0 Members:

 



- Lo-Fi Version Support form
Copyrights and abuse reports form
Time is now: 22nd April 2018 - 00:01:44