Welcome Guest ( Log In | Register )

> WildeStarr - Beyond The Rain (2017), Melodic Power Metal
post Dec 7 2017, 12:24:24
Post #1

Аннигилятор пивА
Group Icon
Group: V.I.P
Posts: 46,875
Releases: 14086
From: Koenigsberg - TILZIT
On Forums: 12 years 3 weeks
Thanks: 312498 time(s)
Russian Federation


(IMG:https://metalarea.org/images/audiocovers/2017_Dec/acov_tid298919_thumb.jpg)

*Artist: WildeStarr
*Album: Beyond The Rain
*Year: 2017
*Genre: Melodic Power Metal
*Country: United States (IMG:https://metalarea.org/forum/style_images/flags/United%20States.png)
*Format: mp3@CBR320kbps
*Size: 90MB

Tracklist:
1. Metamorphose 01:04
2. Beyond the Rain 04:19
3. Pressing the Wires 03:48
4. Double Red 03:52
5. Down Cold 04:03
6. Rage and Water 04:09
7. Crimson Fifths 04:46
8. Undersold 03:30
9. From Shadow 04:17
10. When the Night Falls 04:31
******************************
Total playing time: 38:19



Extended info
Influence: Primal Fear, KAMELOT, Vicious Rumors...
Miss London sounds as pretty much like as she was the little sister of Ralf Scheepers (ex-TYRAN’S PACE / ex-GAMMA RAY / PRIMAL FEAR).

Dave Starr - Lead Guitar, Guitars, Bass (Chastain, ex-Lääz Rockit, ex-Vicious Rumors)
Josh Foster - Drums (ex-Mourn No More)
London Wilde - Keyboards , Vocals


Technical info
(IMG:https://metalarea.org/images/spectrogram/2017_Dec/5221ee94248a673335776229b565240b.png)
Input File: 02 - Wildestarr - Beyond the Rain.mp3
Channels : 2
Sample Rate : 44100
Precision : 16-bit
Duration : 00:04:18.74 = 11410478 samples = 19405.6 CDDA sectors
File Size : 10.5M
Bit Rate : 325k
Sample Encoding: MPEG audio (layer I, II or III)
Comments :
Title=Beyond the Rain
Artist=Wildestarr
Album=Beyond the Rain
Tracknumber=2/10
Year=2017



Register


Go to the top of the page
  Insert nick Quick quote
+Quote Post
 
Start new topic
Replies (1 - 2)
post Dec 7 2017, 14:05:43
Post #2

Наливай!
**************
Group: Металариец
Posts: 5,028
Releases: 27
From: Москва-Бибирево
On Forums: 10 years 3 months
Thanks: 2334 time(s)
Russian Federation




Thanks:
(1) Foneg,
Go to the top of the page
  Insert nick Quick quote
+Quote Post
post Dec 8 2017, 14:23:28
Post #3

MDM-Thrash Metal
**************
Group: Металариец
Posts: 6,811
Releases: 412
From: Одесса
On Forums: 10 years 10 months
Thanks: 12981 time(s)
Ukraine




Thanks:
(1) Foneg,
Go to the top of the page
  Insert nick Quick quote
+Quote Post

Reply to this topicStart new topic
1 User(s) are reading this topic (1 Guests and 0 Anonymous Users)
0 Members:

 



- Lo-Fi Version Support form
Copyrights and abuse reports form
Time is now: 25th June 2018 - 08:31:58