Welcome Guest ( Log In | Register )

> Coronatus - Secrets Of Nature (2017), Symphonic/Folk Metal (D8)
post Dec 7 2017, 12:27:33
Post #1

Аннигилятор пивА
Group Icon
Group: V.I.P
Posts: 48,822
Releases: 14936
From: Koenigsberg - TILZIT
On Forums: 12 years 3 months
Thanks: 327216 time(s)
Russian Federation


(IMG:https://metalarea.org/images/audiocovers/2017_Dec/acov_tid298920_thumb.jpg)

*Artist: Coronatus
*Album: Secrets Of Nature
*Year: 2017
*Genre: Symphonic/Folk Metal
*Country: Germany (IMG:https://metalarea.org/forum/style_images/flags/Germany.png)
*Format: mp3@CBR320kbps
*Size: 101MB

Tracklist:
1. Howling Wind 04:59
2. Mountain Sky 05:19
3. The Hunter 04:47
4. Sleigh Ride to Asgard 04:33
5. Die See 06:38
6. The Little People of Iceland 04:01
7. Dance of the Satyr 03:06
8. Tränen des Himmels 04:39
9. Herr Mannelig 05:24
******************************
Total playing time: 43:26



Extended info
Mats Kurth - Drums (1999-present) See also: Might of Lilith, ex-Lyfthrasyr, ex-Psychotron (live)
Carmen R. Lorch - Soprano Voice (2004-2010, 2013-present) See also: Cadence of Cage, Iluminate, Namrok, ex-Fangorn, ex-Mighty D., ex-Ferro Ignique
Mareike Makosch - Rock Voice (2010-2014, 2017-present) See also: Illuminate, Sister Zero
Gaby Koss - Soprano Voice (2017-present) See also: Death Army, Diskelion, Nota Profana, ex-Koyaanisqatsy, Cantus Lunaris, ex-Haggard, ex-Equilibrium
Teddy Möhrke - Male Vocals (Voices of Destiny)
Kristina Jülich - Volin
Markus Stock - Guitars & Bass (Session Musician) (Empyrium, Eudaimony, Ewigheim, Noekk, Sun of the Sleepless, The Vision Bleak, ex-Nachtmahr, ex-Autumnblaze, ex-Dornenreich)
Mats Kurth - Drums ( Might of Lilith, ex-Lyfthrasyr, ex-Psychotron)


Technical info
(IMG:https://metalarea.org/images/spectrogram/2017_Dec/398268897a2ad071396dc8f3660e5889.png)
Input File: 02 Mountain Sky .mp3
Channels : 2
Sample Rate : 44100
Precision : 16-bit
Duration : 00:05:18.96 = 14066224 samples = 23922.1 CDDA sectors
File Size : 12.8M
Bit Rate : 320k
Sample Encoding: MPEG audio (layer I, II or III)
Comments :
Title=Mountain Sky
Artist=Coronatus
Album=Secrets of Nature
Tracknumber=2
Year=2017
Genre=9



Register


Go to the top of the page
  Insert nick Quick quote
+Quote Post
 
Start new topic
Replies (1 - 2)
post Dec 7 2017, 13:25:49
Post #2

Аннигилятор пивА
Group Icon
Group: V.I.P
Posts: 48,822
Releases: 14936
From: Koenigsberg - TILZIT
On Forums: 12 years 3 months
Thanks: 327216 time(s)
Russian Federation


MIRROR
Register



Thanks:
(1) Reverend,
Go to the top of the page
  Insert nick Quick quote
+Quote Post
post Dec 29 2017, 10:59:42
Post #3

Мегаманьяк
***********
Group: Металариец
Posts: 1,927
Releases: 6
From: Kyiv
On Forums: 10 years 10 months
Thanks: 254 time(s)
Ukraine


весь альбом, как одна песня - ни о чем
Go to the top of the page
  Insert nick Quick quote
+Quote Post

Reply to this topicStart new topic
1 User(s) are reading this topic (1 Guests and 0 Anonymous Users)
0 Members:

 



- Lo-Fi Version Support form
Copyrights and abuse reports form
Time is now: 21st September 2018 - 06:37:06