Welcome Guest ( Log In | Register )

> Corrosive - Lucifer Gave The Faith (2017), Death Metal
post Dec 7 2017, 12:45:31
Post #1

Аннигилятор пивА
Group Icon
Group: V.I.P
Posts: 45,793
Releases: 13674
From: Koenigsberg - TILZIT
On Forums: 11 years 8 months
Thanks: 302553 time(s)
Russian Federation


(IMG:https://metalarea.org/images/audiocovers/2017_Dec/acov_tid298921_thumb.jpg)

*Artist: Corrosive
*Album: Lucifer Gave The Faith
*Year: 2017
*Genre: Death Metal
*Country: Germany (IMG:https://metalarea.org/forum/style_images/flags/Germany.png)
*Format: mp3@CBR320kbps
*Size: 101MB

Tracklist:
1. Intro 01:46
2. Taste the Pain 04:36
3. At the Devils Door 05:07
4. My Need to Kill 05:04
5. Crown of Bones 05:13
6. Leftovers 04:27
7. Zombie Apocalypse 04:23
8. My Eternal Hatred 04:36
9. Dead Hate Living 03:30
10. Lucifer Gave the Faith 05:46
******************************
Total playing time: 44:28



Extended info
Sascha S. - Bass (1995-1997, 2012-present), Vocals (backing) (2015-present) See also: Existence Failed, ex-Tharn
Sascha C. - Drums (1995-present) See also: ex-Conscious Insanity
Andy - Vocals (lead) (1995-present)
Jona - Guitars (2005-2008, 2013-present) See also: ex-Nailedd
Stephan Becker - Guitars (2016-present)


Technical info
(IMG:https://metalarea.org/images/spectrogram/2017_Dec/2199e95bf4eb4ce5140b77fb5980795c.png)
Input File: 02 - Taste the Pain.mp3
Channels : 2
Sample Rate : 44100
Precision : 16-bit
Duration : 00:04:36.00 = 12171468 samples = 20699.8 CDDA sectors
File Size : 11.0M
Bit Rate : 320k
Sample Encoding: MPEG audio (layer I, II or III)
Comments :
Title=Taste the Pain
Artist=Corrosive
Album=Lucifer Gave the Faith
Tracknumber=2
Year=2017



Register


Вернуться к началу страницы
  Insert nick Quick quote
+Цитировать сообщение
 
Создать новую тему
Replies (1 - 3)
post Dec 7 2017, 13:23:34
Post #2

Аннигилятор пивА
Group Icon
Group: V.I.P
Posts: 45,793
Releases: 13674
From: Koenigsberg - TILZIT
On Forums: 11 years 8 months
Thanks: 302553 time(s)
Russian Federation


MIRROR
Register


Thanks:
Вернуться к началу страницы
  Insert nick Quick quote
+Цитировать сообщение
post Dec 28 2017, 12:01:35
Post #3

hearer & reader
**************
Group: Металариец
Posts: 5,999
Releases: 78
From: Moscow
On Forums: 10 years 5 months
Thanks: 6221 time(s)
Russian Federation


Понравились.
Где бы их прежнее творчество надыбать? (если стОящее)
Вернуться к началу страницы
  Insert nick Quick quote
+Цитировать сообщение
post Feb 2 2018, 07:01:56
Post #4

i listen to black metal
**************
Group: Металариец
Posts: 2,119
Releases: 128
From: Москва-Лианозово
On Forums: 11 years 2 months
Thanks: 1969 time(s)
Russian Federation


тоже хочу предыдущие альбомы...
Вернуться к началу страницы
  Insert nick Quick quote
+Цитировать сообщение

ОтветитьСоздать новую тему
1 User(s) are reading this topic (1 Guests and 0 Anonymous Users)
0 Members:

 



- Lo-Fi Version Support form
Copyrights and abuse reports form
Time is now: 24th February 2018 - 16:40:29