Welcome Guest ( Log In | Register )

> Reveal - Timeline (2017), Power Metal
post Dec 7 2017, 13:02:25
Post #1

Аннигилятор пивА
Group Icon
Group: V.I.P
Posts: 46,875
Releases: 14086
From: Koenigsberg - TILZIT
On Forums: 12 years 3 weeks
Thanks: 312500 time(s)
Russian Federation


(IMG:https://metalarea.org/images/audiocovers/2017_Dec/acov_tid298922_thumb.jpg)

*Artist: Reveal
*Album: Timeline
*Year: 2017
*Genre: Power Metal
*Country: Sweden (IMG:https://metalarea.org/forum/style_images/flags/Sweden.png)
*Format: mp3@CBR320kbps
*Size: 93MB

Tracklist:
01. Reveal
02. You Will Rise
03. Wishes
04. Dark Angels
05. Blood and Sand
06. Undercontrol
07. Timeline
08. The Truth in Your Eyes
09. 300
10. Blood and Sand (Bonus Track)
******************************
Total playing time: 43:42

Extended info
Rob Lundgren - Lead Vocals
Tino Hevia - Guitar
David Figuer – Lead guitarist (Darksun)
Jorge Ruiz -Bass (Old Enemies,Teksuo)
Dani Cabal – Drums (Darksun, Döxa)
Helena Pinto – Keyboards (Darksun)

Guests:
Marcus Siepen of Blind Guardian (Lead guitar on the track “Blood and Sands”)
Marcos Rodriguez of Rage (Lead guitar on “300” and lead vocals on the bonus track version of “Blood and Sands”)
Tom Nauman of Primal Fear (Lead guitar on “You Will Rise”)
Eduardo Escobar (Acoustic guitar on Dark Angels)


Technical info
(IMG:https://metalarea.org/images/spectrogram/2017_Dec/16e91e0f919b03efaccbe22dc00a1cf3.png)
Input File: 2 You Will Rise.mp3
Channels : 2
Sample Rate : 44100
Precision : 16-bit
Duration : 00:05:24.37 = 14304673 samples = 24327.7 CDDA sectors
File Size : 13.1M
Bit Rate : 324k
Sample Encoding: MPEG audio (layer I, II or III)
Comments :
Title=You Will Rise
Artist=Reveal
Album=Timeline
Tracknumber=2/10
Year=2017
Genre=9
Discnumber=1/1



Register


Go to the top of the page
  Insert nick Quick quote
+Quote Post
 
Start new topic
Replies (1 - 4)
post Dec 7 2017, 14:30:07
Post #2

Аннигилятор пивА
Group Icon
Group: V.I.P
Posts: 46,875
Releases: 14086
From: Koenigsberg - TILZIT
On Forums: 12 years 3 weeks
Thanks: 312500 time(s)
Russian Federation


MIRROR
Register



Thanks:
Go to the top of the page
  Insert nick Quick quote
+Quote Post
post Dec 8 2017, 07:47:33
Post #3

hearer & reader
**************
Group: Металариец
Posts: 6,411
Releases: 81
From: Moscow
On Forums: 10 years 9 months
Thanks: 6423 time(s)
Russian Federation


Тут о группе всё подробно - http://fcmetal.com/shop/reveal-timeline-cd/
Не пойму, зачем так назвались, есть же действующая банда из Упсалы..
Чертовски приятный альбом.
Go to the top of the page
  Insert nick Quick quote
+Quote Post
post Dec 11 2017, 16:02:14
Post #4

Перевозчик
**************
Group: Металариец
Posts: 2,726
Releases: 0
On Forums: 9 years 11 months
Thanks: 550 time(s)
Russian Federation


Превью чертовски скучное. Но попробую послушать.
Go to the top of the page
  Insert nick Quick quote
+Quote Post
post Apr 19 2018, 09:12:30
Post #5

hearer & reader
**************
Group: Металариец
Posts: 6,411
Releases: 81
From: Moscow
On Forums: 10 years 9 months
Thanks: 6423 time(s)
Russian Federation


И ещё - банда испанская, хотя и со шведским вокалистом.

http://www.revealband.com
Go to the top of the page
  Insert nick Quick quote
+Quote Post

Reply to this topicStart new topic
1 User(s) are reading this topic (1 Guests and 0 Anonymous Users)
0 Members:

 



- Lo-Fi Version Support form
Copyrights and abuse reports form
Time is now: 25th June 2018 - 08:36:55