Welcome Guest ( Log In | Register )

> Kuoleman Galleria - Pimeys Saapuu Pohjoiseen (2017), Black'n'Roll
post Dec 7 2017, 13:08:34
Post #1

Правь статус, ####!111
**************
Group: Металариец
Posts: 15,299
Releases: 10446
From: Г.Харьков
On Forums: 6 years 7 months
Thanks: 173156 time(s)
Unknown


(IMG:http://metalarea.org/images/audiocovers/2017_Dec/acov_tid298923_thumb.jpg)

*Artist: Kuoleman Galleria
*Album: Pimeys Saapuu Pohjoiseen
*Year: 2017
*Genre: Black'n'Roll
*Country: Finland (IMG:http://metalarea.org/forum/style_images/flags/Finland.png)
*Format: mp3@CBR320kbps
*Size: 113MB

Tracklist:
1. Pimeys saapuu pohjoiseen
2. Hännystelijät helvettiin
3. Täsmäisku
4. Materian omistama
5. Ajan hammas
6. Piru on irti
7. Sadattaja
8. Nuorallatanssija
9. Vahtikoira
10. Kurjuuden kierteessä
11. Antava osapuoli
12. Vainajan virsi
13. Jalopuinen makuupaikka
14. Mieleen haudattu
******************************
Total playing time: 57:28



Extended info


Technical info
(IMG:http://metalarea.org/images/spectrogram/2017_Dec/f2183b678ad18af314fd02b773d087b2.png)
Input File: 02 - Kuoleman Galleria - Hannystelijat Helvettiin.mp3
Channels : 2
Sample Rate : 44100
Precision : 16-bit
Duration : 00:03:14.53 = 8578641 samples = 14589.5 CDDA sectors
File Size : 7.90M
Bit Rate : 325k
Sample Encoding: MPEG audio (layer I, II or III)
Comments :
Title=Hannystelijat Helvettiin
Artist=Kuoleman Galleria
Album=Pimeys saapuu pohjoiseen
Tracknumber=2/14
Year=2017



Register


Go to the top of the page
  Insert nick Quick quote
+Quote Post
 
Start new topic
Replies (1 - 2)
post Dec 11 2017, 16:44:26
Post #2

Литр
*
Group: Подсевший
Posts: 85
Releases: 47
On Forums: 6 years 3 months
Thanks: 1116 time(s)
Unknown


Чё по битрейту?
(IMG:https://pp.userapi.com/c841529/v841529515/489f0/aTrvQHoHXGI.jpg)
Go to the top of the page
  Insert nick Quick quote
+Quote Post
post Dec 14 2017, 19:58:05
Post #3

кручу наждак
**************
Group: Металариец
Posts: 3,575
Releases: 92
From: Самара
On Forums: 8 years 6 months
Thanks: 2692 time(s)
Russian Federation


Почти часовой альбом для такой музыки это дичайший перебор.
Go to the top of the page
  Insert nick Quick quote
+Quote Post

Reply to this topicStart new topic
1 User(s) are reading this topic (1 Guests and 0 Anonymous Users)
0 Members:

 



- Lo-Fi Version Support form
Copyrights and abuse reports form
Time is now: 10th December 2018 - 19:12:15