Welcome Guest ( Log In | Register )

> War Of Ages - Alpha (2017), Metalcore
post Dec 7 2017, 13:09:49
Post #1

Аннигилятор пивА
Group Icon
Group: V.I.P
Posts: 45,794
Releases: 13674
From: Koenigsberg - TILZIT
On Forums: 11 years 8 months
Thanks: 302557 time(s)
Russian Federation


(IMG:https://metalarea.org/images/audiocovers/2017_Dec/acov_tid298924_thumb.jpg)

*Artist: War Of Ages
*Album: Alpha
*Year: 2017
*Genre: Metalcore
*Country: United States (IMG:https://metalarea.org/forum/style_images/flags/United%20States.png)
*Format: mp3@CBR320kbps
*Size: 95MB

Tracklist:
01. Creator
02. Fullness
03. Buried Alive
04. Warpath
05. Hollow Point
06. Repentance
07. Mind Control
08. Immunity Revoked
09. Warrior
10. Cut Throat
******************************
Total playing time: 40:32



Extended info
LEROY HAMP - (Vocals)
STEVE BROWN - (Guitar)
JACK DANIELS - (Guitar)
ALEX HAMP - (Drums)



Technical info
(IMG:https://metalarea.org/images/spectrogram/2017_Dec/8bac7c0c2f1bd12bf87d56c4c980ea5f.png)
Input File: 03 - Buried Alive.mp3
Channels : 2
Sample Rate : 44100
Precision : 16-bit
Duration : 00:03:38.90 = 9653490 samples = 16417.5 CDDA sectors
File Size : 8.97M
Bit Rate : 328k
Sample Encoding: MPEG audio (layer I, II or III)
Comments :
Title=Buried Alive
Artist=War of Ages
Album=Alpha
Tracknumber=3/10
Year=2017



Register


Вернуться к началу страницы
  Insert nick Quick quote
+Цитировать сообщение
 
Создать новую тему
Replies (1 - 5)
post Dec 7 2017, 19:35:28
Post #2

Литр
*
Group: Подсевший
Posts: 95
Releases: 0
On Forums: 10 years 1 month
Thanks: 14 time(s)
Russian Federation


сингл был тухловат, как по мне, а предыдущий альбом 2014 года у них вышка (для них (IMG:style_emoticons/default/1488.gif) ), только быстровато надоел, нудноват и неизобретателен, ну стиль такой
Вернуться к началу страницы
  Insert nick Quick quote
+Цитировать сообщение
post Dec 8 2017, 20:54:02
Post #3

Тридцать лет на борту "Тяжёлого" крейсера
***********
Group: Металариец
Posts: 1,685
Releases: 0
From: Питер
On Forums: 10 years 8 months
Thanks: 354 time(s)
Russian Federation


2-ой и 10-ый треки, заслуживают внимания. Остальное тухлый винегрет, как и всё прошлое творчество группы
Вернуться к началу страницы
  Insert nick Quick quote
+Цитировать сообщение
post Dec 8 2017, 21:50:18
Post #4

Ъ
**************
Group: Металариец
Posts: 8,951
Releases: 9
On Forums: 9 years 1 month
Thanks: 1661 time(s)
Sweden


Третьесорт, на раз послушать можно.
Вернуться к началу страницы
  Insert nick Quick quote
+Цитировать сообщение
post Dec 16 2017, 13:00:31
Post #5

Литр
*
Group: Подсевший
Posts: 95
Releases: 0
On Forums: 10 years 1 month
Thanks: 14 time(s)
Russian Federation


уху ваще некчему зацепицо, порожняк вощим
Вернуться к началу страницы
  Insert nick Quick quote
+Цитировать сообщение
post Dec 23 2017, 14:55:07
Post #6

rastapopoulos
**********
Group: Металариец
Posts: 1,491
Releases: 0
On Forums: 9 years 11 months
Thanks: 530 time(s)
Cameroon


maybe more deathcore
Вернуться к началу страницы
  Insert nick Quick quote
+Цитировать сообщение

ОтветитьСоздать новую тему
1 User(s) are reading this topic (1 Guests and 0 Anonymous Users)
0 Members:

 



- Lo-Fi Version Support form
Copyrights and abuse reports form
Time is now: 24th February 2018 - 16:49:32